Subcategories

Rory Gallagher - Deuce (1971)

Posted By: uff
Rory Gallagher - Deuce (1971)

Rory Gallagher - Deuce (1971)
rock | 1cd | Eac Rip | Flac + Cue + Log | covers
BMG BVCM-37881 | rel: 2007 | 405mb

Released in November 1971, just six months after his solo debut, Rory Gallagher's second album was the summation of all that he'd promised in the wake of Taste's collapse, and the blueprint for most of what he'd accomplish over the next two years of recording. Largely overlooked by posterity's haste to canonize his next album, Live! In Europe, Deuce finds Gallagher torn between the earthy R&B of "Used to Be," a gritty blues fed through by some viciously unrestrained guitar playing, and the jokey, country-billy badinage of "Don't Know Where I'm Going," a too-short snippet that marries Bob Dylan to Ronnie Lane and reminds listeners just how broad Gallagher's sense of humor was. Reflecting the laid-back feel of Rory Gallagher, "I'm Not Awake Yet" is a largely acoustic piece driven as much by Gerry McAvoy's gutbucket bass as by Gallagher's intricate playing; "There's a Light", too, plays to Gallagher's sensitive side, while stating his mastery of the guitar across a protracted solo that isn't simply spellbinding in its restraint, it also has the effect of adding another voice to the proceedings. But such notions of plaintive melodicism are utterly exorcised by the moments of highest drama, a sequence that peaks with the closing, broiling "Crest of a Wave." With bass set on stun, the drums a turbulent wall of sound, and Gallagher's guitar a sonic switchblade, it's a masterpiece of aggressive dynamics, the sound of a band so close to its peak that you can almost touch the electricity. Of course, that peak would come during 1972-1973 with the albums upon which Gallagher's reputation is today most comfortably set. Deuce, however, doesn't simply set the stage for the future, it strikes the light that ignites the entire firestorm.

Tracks:
1 "I'm Not Awake Yet" – 5:24
2 "Used to Be" - 5:06
3 "Don't Know Where I'm Going" – 2:45
4 "Maybe I Will" – 4:13
5 "Whole Lot of People" – 4:54
6 "In Your Town" – 5:43
7 "Should've Learnt My Lesson" – 3:34
8 "There's a Light" – 5:59
9 "Out of My Mind" – 3:00
10 "Crest of a Wave" – 5:52
11 "Persuasion" – 4:42

Personnel:
- Rory Gallagher – vocals, guitars, harmonica
- Gerry McAvoy – bass guitar
- Wilgar Campbell – drums, percussion

Exact Audio Copy V0.99 prebeta 5 from 4. May 2009

EAC extraction logfile from 24. March 2011, 14:43

Rory Gallagher / Deuce

Used drive : Optiarc DVD RW AD-7241S Adapter: 2 ID: 0

Read mode : Secure
Utilize accurate stream : Yes
Defeat audio cache : Yes
Make use of C2 pointers : No

Read offset correction : 48
Overread into Lead-In and Lead-Out : No
Fill up missing offset samples with silence : Yes
Delete leading and trailing silent blocks : No
Null samples used in CRC calculations : Yes
Used interface : Native Win32 interface for Win NT & 2000
Gap handling : Appended to previous track

Used output format : User Defined Encoder
Selected bitrate : 768 kBit/s
Quality : High
Add ID3 tag : No
Command line compressor : C:\Program Files\Exact Audio Copy\Flac\flac.exe
Additional command line options : -8 -V -T "ARTIST=%a" -T "TITLE=%t" -T "ALBUM=%g" -T "DATE=%y" -T "TRACKNUMBER=%n" -T "GENRE=%m" -T "COMMENT=EAC FLAC -8" %s


TOC of the extracted CD

Track | Start | Length | Start sector | End sector
––––––––––––––––––––––––––––-
1 | 0:00.00 | 5:06.68 | 0 | 23017
2 | 5:06.68 | 5:24.03 | 23018 | 47320
3 | 10:30.71 | 2:42.68 | 47321 | 59538
4 | 13:13.64 | 4:15.20 | 59539 | 78683
5 | 17:29.09 | 4:57.22 | 78684 | 100980
6 | 22:26.31 | 5:47.30 | 100981 | 127035
7 | 28:13.61 | 3:36.18 | 127036 | 143253
8 | 31:50.04 | 5:59.55 | 143254 | 170233
9 | 37:49.59 | 3:05.17 | 170234 | 184125
10 | 40:55.01 | 6:00.33 | 184126 | 211158
11 | 46:55.34 | 4:43.54 | 211159 | 232437


Track 1

Filename D:\EAC\01-Rory Gallagher-I'm Not Awake Yet.wav

Pre-gap length 0:00:02.00

Peak level 98.9 %
Track quality 100.0 %
Test CRC 4E9E89BF
Copy CRC 4E9E89BF
Track not present in AccurateRip database
Copy OK

Track 2

Filename D:\EAC\02-Rory Gallagher-Used To Be.wav

Pre-gap length 0:00:01.32

Peak level 100.0 %
Track quality 100.0 %
Test CRC 28680CDD
Copy CRC 28680CDD
Track not present in AccurateRip database
Copy OK

Track 3

Filename D:\EAC\03-Rory Gallagher-Don't Know Where I'm Going.wav

Pre-gap length 0:00:01.17

Peak level 93.5 %
Track quality 100.0 %
Test CRC 281FC595
Copy CRC 281FC595
Track not present in AccurateRip database
Copy OK

Track 4

Filename D:\EAC\04-Rory Gallagher-Maybe I Will.wav

Pre-gap length 0:00:01.21

Peak level 99.3 %
Track quality 100.0 %
Test CRC 47A816BD
Copy CRC 47A816BD
Track not present in AccurateRip database
Copy OK

Track 5

Filename D:\EAC\05-Rory Gallagher-Whole Lot Of People.wav

Pre-gap length 0:00:01.21

Peak level 99.1 %
Track quality 100.0 %
Test CRC A348AFC9
Copy CRC A348AFC9
Track not present in AccurateRip database
Copy OK

Track 6

Filename D:\EAC\06-Rory Gallagher-In Your Town.wav

Pre-gap length 0:00:01.08

Peak level 99.2 %
Track quality 100.0 %
Test CRC AC882009
Copy CRC AC882009
Track not present in AccurateRip database
Copy OK

Track 7

Filename D:\EAC\07-Rory Gallagher-Should've Learnt My Lesson.wav

Pre-gap length 0:00:01.97

Peak level 98.9 %
Track quality 100.0 %
Test CRC DC3ECC1D
Copy CRC DC3ECC1D
Track not present in AccurateRip database
Copy OK

Track 8

Filename D:\EAC\08-Rory Gallagher-There's A Light.wav

Pre-gap length 0:00:01.14

Peak level 99.2 %
Track quality 100.0 %
Test CRC 34F8F57D
Copy CRC 34F8F57D
Track not present in AccurateRip database
Copy OK

Track 9

Filename D:\EAC\09-Rory Gallagher-Out Of My Mind.wav

Pre-gap length 0:00:01.12

Peak level 69.7 %
Track quality 100.0 %
Test CRC 0F018CC4
Copy CRC 0F018CC4
Track not present in AccurateRip database
Copy OK

Track 10

Filename D:\EAC\10-Rory Gallagher-Crest Of A Wave.wav

Pre-gap length 0:00:01.21

Peak level 99.2 %
Track quality 100.0 %
Test CRC 04ADCDB2
Copy CRC 04ADCDB2
Track not present in AccurateRip database
Copy OK

Track 11

Filename D:\EAC\11-Rory Gallagher-Persuasion (Bonus Track).wav

Pre-gap length 0:00:02.45

Peak level 88.0 %
Track quality 100.0 %
Test CRC 63444C9B
Copy CRC 63444C9B
Track not present in AccurateRip database
Copy OK


None of the tracks are present in the AccurateRip database

No errors occurred

End of status report


[CUETools log; Date: 2013.02.25. 15:45:04; Version: 2.1.4]
[CTDB TOCID: LAbi3W_gIb.pZEsvqlI69U9K7JI-] found.
Track | CTDB Status
1 | (2/2) Accurately ripped
2 | (2/2) Accurately ripped
3 | (2/2) Accurately ripped
4 | (2/2) Accurately ripped
5 | (2/2) Accurately ripped
6 | (2/2) Accurately ripped
7 | (2/2) Accurately ripped
8 | (2/2) Accurately ripped
9 | (2/2) Accurately ripped
10 | (2/2) Accurately ripped
11 | (2/2) Accurately ripped
[AccurateRip ID: 001505fe-00b64885-960c1b0b] found.
Track [ CRC | V2 ] Status
01 [09858cbf|5d5869d6] (2+0/2) Accurately ripped
02 [a63afcb2|ea29c20f] (2+0/2) Accurately ripped
03 [233e01f1|5d389ec9] (2+0/2) Accurately ripped
04 [e7bf7e1d|63aa1f24] (2+0/2) Accurately ripped
05 [ba34ae1a|515d7a22] (2+0/2) Accurately ripped
06 [d9b265b6|5a9098df] (2+0/2) Accurately ripped
07 [9b76ecc8|44703e49] (2+0/2) Accurately ripped
08 [a8aa266c|103be711] (2+0/2) Accurately ripped
09 [c1e54aa2|1f976e19] (2+0/2) Accurately ripped
10 [1a7820ec|794689f1] (2+0/2) Accurately ripped
11 [980eb87b|2a60236f] (2+0/2) Accurately ripped

Track Peak [ CRC32 ] [W/O NULL] [ LOG ]
– 100,0 [3522E15E] [2F53C531]
01 98,9 [4E9E89BF] [458E2054] CRC32
02 100,0 [28680CDD] [09D5E126] CRC32
03 93,5 [281FC595] [8DF5723F] CRC32
04 99,3 [47A816BD] [DC616305] CRC32
05 99,1 [A348AFC9] [B2E7FAA6] CRC32
06 99,2 [AC882009] [DB257EDE] CRC32
07 98,9 [DC3ECC1D] [5A74646C] CRC32
08 99,2 [34F8F57D] [12627F41] CRC32
09 69,7 [0F018CC4] [E57F08F7] CRC32
10 99,2 [04ADCDB2] [E0C55FD9] CRC32
11 88,0 [63444C9B] [DCE50D17] CRC32


Thx to the original uploader

More RG on my blog