Subcategories

Rory Gallagher - Irish Tour (1974)

Posted By: uff
Rory Gallagher - Irish Tour (1974)

Rory Gallagher - Irish Tour (1974)
rock | 1cd | Eac Rip | Flac + Cue + Log | covers
BMG BVCM-37642 | 560mb

The companion piece to director Tony Palmer's documentary of the same name, Irish Tour 1974 was recorded that January in Belfast, Dublin, and Cork at a time when precious few performers – Irish or otherwise – were even dreaming of touring the trouble-torn island. Northern Ireland, in particular, was a rock & roll no-go area, but Gallagher never turned his back on the province and was rewarded with what history recalls as some of his best-ever gigs. Irish Tour 1974, in turn, captures some of his finest known live recordings and, while it's impossible to tell which songs were recorded where, across nine in-concert recordings (plus one after-hours jam session, "Back on My Stompin' Ground"), the energy crackling from stage to stalls and back again packs an intensity that few live albums – Gallagher's own others among them – can match. Highlights of a stunning set include dramatic takes on Muddy Waters' "I Wonder Who" and Tony Joe White's "As the Crow Flies," a raw acoustic rendering that is nevertheless totally electrifying. A frustratingly brief snip of the classic Shadows-style "Maritime" (aka "Just a Little Bit") plays the album out in anthemic style and then, of course, there's "Walk on Hot Coals," a marathon excursion that posterity has decreed Gallagher's most popular and accomplished statement – a status that Irish Tour 1974 does nothing to contradict. It's foolish playing favorites, however. Even more than Gallagher's earlier (1972) Live in Europe album, Irish Tour 1974 confirms Gallagher not simply as the greatest bluesman Ireland ever knew, but as one of the island's greatest-ever performers. The 1999 remaster adds nothing in the way of bonus material (shame), but greatly improves the sound quality.

Tracks:
1. Cradle Rock
2. I Wonder Who
3. Tattoo'd Lady
4. Too Much Alcohol
5. As The Crow Flies
6. A Million Miles Away
7. Walk On Hot Coals
8. Who's That Coming ?
9. Back On My Stompin' Ground (After Hours)
10. Maritime

Personnel:
- Rory Gallagher – vocals, guitar, harmonica
- Gerry McAvoy – bass guitar
- Lou Martin – keyboards
- Rod de'Ath – drums, percussion

Exact Audio Copy V0.99 prebeta 5 from 4. May 2009

EAC extraction logfile from 31. March 2011, 12:15

Rory Gallagher / Irish Tour

Used drive : Optiarc DVD RW AD-7241S Adapter: 2 ID: 0

Read mode : Secure
Utilize accurate stream : Yes
Defeat audio cache : Yes
Make use of C2 pointers : No

Read offset correction : 48
Overread into Lead-In and Lead-Out : No
Fill up missing offset samples with silence : Yes
Delete leading and trailing silent blocks : No
Null samples used in CRC calculations : Yes
Used interface : Native Win32 interface for Win NT & 2000
Gap handling : Appended to previous track

Used output format : User Defined Encoder
Selected bitrate : 768 kBit/s
Quality : High
Add ID3 tag : No
Command line compressor : C:\Program Files\Exact Audio Copy\Flac\flac.exe
Additional command line options : -8 -V -T "ARTIST=%a" -T "TITLE=%t" -T "ALBUM=%g" -T "DATE=%y" -T "TRACKNUMBER=%n" -T "GENRE=%m" -T "COMMENT=EAC FLAC -8" %s


TOC of the extracted CD

Track | Start | Length | Start sector | End sector
––––––––––––––––––––––––––––-
1 | 0:00.00 | 7:38.40 | 0 | 34389
2 | 7:38.40 | 7:52.50 | 34390 | 69839
3 | 15:31.15 | 5:04.10 | 69840 | 92649
4 | 20:35.25 | 8:30.50 | 92650 | 130949
5 | 29:06.00 | 6:02.68 | 130950 | 158167
6 | 35:08.68 | 9:29.25 | 158168 | 200867
7 | 44:38.18 | 11:13.30 | 200868 | 251372
8 | 55:51.48 | 10:05.67 | 251373 | 296814
9 | 65:57.40 | 5:18.55 | 296815 | 320719
10 | 71:16.20 | 0:33.10 | 320720 | 323204


Track 1

Filename D:\EAC\01-Rory Gallagher-Cradle Rock.wav

Pre-gap length 0:00:02.00

Peak level 97.7 %
Track quality 100.0 %
Test CRC 5A3DDEA5
Copy CRC 5A3DDEA5
Accurately ripped (confidence 6) [5B9B16F7]
Copy OK

Track 2

Filename D:\EAC\02-Rory Gallagher-I Wonder Who.wav

Peak level 97.7 %
Track quality 100.0 %
Test CRC E608DABF
Copy CRC E608DABF
Accurately ripped (confidence 6) [2C41843C]
Copy OK

Track 3

Filename D:\EAC\03-Rory Gallagher-Tattoo'd Lady.wav

Peak level 97.7 %
Track quality 100.0 %
Test CRC E37E2D59
Copy CRC E37E2D59
Accurately ripped (confidence 6) [780E050F]
Copy OK

Track 4

Filename D:\EAC\04-Rory Gallagher-Too Much Alcohol.wav

Pre-gap length 0:00:01.14

Peak level 97.7 %
Track quality 100.0 %
Test CRC 9CAA79C0
Copy CRC 9CAA79C0
Accurately ripped (confidence 6) [59614754]
Copy OK

Track 5

Filename D:\EAC\05-Rory Gallagher-As the Crow Flies.wav

Peak level 97.7 %
Track quality 100.0 %
Test CRC 10C36DB8
Copy CRC 10C36DB8
Accurately ripped (confidence 6) [BEDA25E9]
Copy OK

Track 6

Filename D:\EAC\06-Rory Gallagher-A Million Miles Away.wav

Peak level 97.7 %
Track quality 100.0 %
Test CRC 94082438
Copy CRC 94082438
Accurately ripped (confidence 6) [241BBD22]
Copy OK

Track 7

Filename D:\EAC\07-Rory Gallagher-Walk on Hot Coals.wav

Peak level 97.7 %
Track quality 99.9 %
Test CRC 174F0759
Copy CRC 174F0759
Accurately ripped (confidence 6) [A6D358F4]
Copy OK

Track 8

Filename D:\EAC\08-Rory Gallagher-Who's That Coming .wav

Peak level 97.7 %
Track quality 100.0 %
Test CRC E931CD86
Copy CRC E931CD86
Accurately ripped (confidence 6) [96BB68AD]
Copy OK

Track 9

Filename D:\EAC\09-Rory Gallagher-Back on My Stompin' Ground (After Hours).wav

Pre-gap length 0:00:01.81

Peak level 97.7 %
Track quality 100.0 %
Test CRC C8CAFA9D
Copy CRC C8CAFA9D
Accurately ripped (confidence 5) [5D86033D]
Copy OK

Track 10

Filename D:\EAC\10-Rory Gallagher-Maritime.wav

Peak level 95.3 %
Track quality 100.0 %
Test CRC 20C09D8A
Copy CRC 20C09D8A
Accurately ripped (confidence 6) [7C6CC6B6]
Copy OK


All tracks accurately ripped

No errors occurred

End of status report



[CUETools log; Date: 2013.02.04. 11:57:18; Version: 2.1.4]
[CTDB TOCID: b33DpWaN590euB1oJZmsz4HdmFY-] found.
Track | CTDB Status
1 | (1/1) Accurately ripped
2 | (1/1) Accurately ripped
3 | (1/1) Accurately ripped
4 | (1/1) Accurately ripped
5 | (1/1) Accurately ripped
6 | (1/1) Accurately ripped
7 | (1/1) Accurately ripped
8 | (1/1) Accurately ripped
9 | (1/1) Accurately ripped
10 | (1/1) Accurately ripped
[AccurateRip ID: 001cabc3-00e67615-8d10d50a] found.
Track [ CRC | V2 ] Status
01 [5b9b16f7|64ff5e0e] (7+0/7) Accurately ripped
02 [2c41843c|988f6789] (7+0/7) Accurately ripped
03 [780e050f|bb22cd39] (7+0/7) Accurately ripped
04 [59614754|27ea99c2] (7+0/7) Accurately ripped
05 [beda25e9|dbd6a236] (7+0/7) Accurately ripped
06 [241bbd22|85240e5f] (7+0/7) Accurately ripped
07 [a6d358f4|10f952f3] (7+0/7) Accurately ripped
08 [96bb68ad|3b2c7954] (7+0/7) Accurately ripped
09 [5d86033d|b0ae804e] (6+0/6) Accurately ripped
10 [7c6cc6b6|4a2dacc4] (7+0/7) Accurately ripped

Track Peak [ CRC32 ] [W/O NULL] [ LOG ]
– 97,7 [00ECA631] [BFB478FC]
01 97,7 [5A3DDEA5] [337B726B] CRC32
02 97,7 [E608DABF] [431CFC2C] CRC32
03 97,7 [E37E2D59] [372D8A36] CRC32
04 97,7 [9CAA79C0] [A4729F1F] CRC32
05 97,7 [10C36DB8] [B13F3322] CRC32
06 97,7 [94082438] [13B80D1C] CRC32
07 97,7 [174F0759] [D64A8B0E] CRC32
08 97,7 [E931CD86] [80033FDF] CRC32
09 97,7 [C8CAFA9D] [2468D523] CRC32
10 95,3 [20C09D8A] [5D6B0C6A] CRC32



Thx to the original uploader

The DVD video here