Subcategories

Rosa Passos - Rosa Por Rosa (2005) {Velas}

Posted By: tiburon
Rosa Passos - Rosa Por Rosa (2005) {Velas}

Rosa Passos - Rosa Por Rosa (2005) {Velas}
EAC 0.95b3 | FLAC Image level 8 | Cue+Log | Full Scans 600dpi | 407MB + 5% Recovery
MP3 CBR 320 Kbps | 162MB + 5% Recovery
Genre: Brazilian Jazz, Bossa Nova

Rosa Passos is one of the few singers currently in Brazil dedicated to a genuine evolution of Brazilian music, devoid of fashionable trend and commercialism. She has established herself firmly in the country's artistic scenery, acknowledged by many such as João Gilberto, Maria Schneider, Clare Fisher, Paquito d'Rivera, Johnny Alf, Nana Caymmi (who recorded two of her compositions), and even the number one enemy of bossa nova, the fundamental music researcher J.R. Tinhorão, even if she hasn't had her deserved media exposure.
Track List
01. Abajur Lilás
02. Festa
03. Chuva de Verão
04. Juras
05. Causa Perdida
06. Minuano
07. Pano Pra Manga
08. Espelhos
09. Samba Sem Você
10. Verão
11. Amorosa
12. Dunas
13. Outono
14. Barcos
15. Gesto
16. Salada Tropical


EAC extraction logfile from 10. February 2007, 20:37 for CD
Rosa Passos / Rosa por Rosa

Used drive : PLEXTOR CD-R PX-W1210S Adapter: 2 ID: 4
Read mode : Secure with NO C2, accurate stream, disable cache
Read offset correction : 98
Overread into Lead-In and Lead-Out : No

Used output format : Internal WAV Routines
44.100 Hz; 16 Bit; Stereo

Other options :
Fill up missing offset samples with silence : Yes
Delete leading and trailing silent blocks : No
Installed external ASPI interface


Range status and errors
Selected range
Filename D:\Rips\Rosa por Rosa.wav

Peak level 100.0 %
Range quality 100.0 %
CRC D5BA271D
Copy OK

No errors occured

End of status report


––––––––––––––––––––––––––––––––––––––––
Analyzed: Rosa Passos / Rosa por Rosa
––––––––––––––––––––––––––––––––––––––––

DR Peak RMS Duration Track
––––––––––––––––––––––––––––––––––––––––
DR10 0.00 dB -11.50 dB 4:15 01-Abajur Lilбs
DR10 0.00 dB -10.87 dB 3:10 02-Festa
DR9 0.00 dB -11.22 dB 2:45 03-Chuva de Verгo
DR8 0.00 dB -9.40 dB 4:25 04-Juras
DR9 0.00 dB -10.62 dB 3:09 05-Causa Perdida
DR10 0.00 dB -11.36 dB 4:07 06-Minuano
DR10 0.00 dB -11.43 dB 4:10 07-Pano pra Manga
DR10 0.00 dB -11.69 dB 5:33 08-Espelhos
DR10 0.00 dB -10.49 dB 3:44 09-Samba sem vocк
DR9 0.00 dB -11.14 dB 4:18 10-Verгo
DR8 0.00 dB -9.86 dB 3:29 11-Amorosa
DR9 0.00 dB -9.57 dB 3:54 12-Dunas
DR9 0.00 dB -10.45 dB 3:42 13-Outono
DR10 0.00 dB -12.29 dB 3:30 14-Barcos
DR9 0.00 dB -10.43 dB 4:03 15-Gesto
DR9 0.00 dB -10.06 dB 4:05 16-Salada Tropical
––––––––––––––––––––––––––––––––––––––––

Number of tracks: 16
Official DR value: DR9

Samplerate: 44100 Hz
Channels: 2
Bits per sample: 16
Bitrate: 873 kbps
Codec: FLAC
================================================================================

Rosa Passos - Rosa Por Rosa (2005) {Velas}
Rosa Passos - Rosa Por Rosa (2005) {Velas}
Rosa Passos - Rosa Por Rosa (2005) {Velas}


Thanks to the original ripper