Subcategories

Rosita Renard at Carnegie Hall [Live] 19 January 1949 plus Rare Recordings from 1928 [2 CDs] [Re-up+new rip]

Posted By: DanseDePuck
Rosita Renard at Carnegie Hall [Live] 19 January 1949 plus Rare Recordings from 1928 [2 CDs] [Re-up+new rip]

Rosita Renard at Carnegie Hall [Live] 19 January 1949 plus Rare Recordings from 1928
EAC rip | Flac, IMG+CUE, Log | 284 MB | Full HQ scans | WinRar [Rec.rec. 5%]
Label: VAIA/IPA # 1028-2 | Rel. 1993| Rec.: 1949 (Carnegie Hall Recital) & 1928 (Rare 78 RPM Recordings)

From the notes: Rosita Renard was born in Santiago, Chile, on February 8, 1894, the daughter of a building contractor; she showed extraordinary gifts as a child, and made her pianistic debut at the age of fourteen playing the Grieg Concerto with the Chilean Symphony Orchestra. A year later the government awarded her a scholarship to study in Berlin at the Stern Conservatory. Arriving there in 1910, Rosita was put in the master class of Martin Krause, a Liszt pupil today remembered as the teacher of Edwin Fischer, who was Renard's classmate and friend, and Claudio Arrau, her countryman, who was seven years Renard's junior. The two families were friendly and when it came time for the nine-year-old Arrau to audition fro Krause in 1912, it was Rosita Renard who actually took the young boy by the hand to the audition" Notes by Edward Blickstein

Rosita Renard at Carnegie Hall [Live] 19 January 1949 plus Rare Recordings from 1928 [2 CDs] [Re-up+new rip]

CD 1
Bach: Partita No. 1 in B flat

1. Prelude
2. Allemande
3. Courante
4. Sarabande
5. Minutes 1 and 2
6. Gigue
Mozart: Sonata No. 15, K. 310 in A minor
7. Allegro Maestoso
8. Andante Cantabile con Espressione
9. Presto
10. Mendelssohn: Variations Sérieuses, Op. 54
11. Mozart: Rondo, K. 485, D major
12. Chopin: Etude, Op. 10 No. 11, E flat
13. Chopin: Etude, Op. 25 No. 5, E minor
14. Chopin: Etude, Op. 10 No. 3, E major
15. Chopin: Etude, Op. 25 No. 8, D flat
16. Chopin: Etude, Op. 25 No. 4, A minor
17. Chopin: Etude, Op. 10 No. 2, A minor
18. Chopin: Mazurka, Op. 30 No. 4, C sharp minor
19. Mendelssohn: Prelude, Op. 104 No. 1, B flat
20. Chopin: Etude, Op. 25 No. 2, F minor
21. Chopin: Etude, Op. 25 No. 3, F major
22. Chopin: Etude, Op. 10 No. 4, C sharp minor


CD 2
1. Ravel: Valses Nobles et Sentimentales
2. Debussy: Danse
3. Chopin: Mazurka, Op. 59 No. 3, F sharp minor
Live Recording on January 19, 1949 at Carnegie Hall

From 78 rpm discs (recorded circa 1928):
4. Boccherini: Minuet from Quintet, Op. 13 No. 5
5. Mozart: Rondo, K. 485, D Major
Beethoven: Sonata, Op. 31 No. 1 in G major
6. Allegro vivace
7. Adagio grazioso
8. Rondo allegretto
9. Mendelssohn: Prelude, Op. 104 No. 1, B flat
10. Chopin: Prelude, Op. 28 No. 7, A major
11. Chopin: Nocturne, Op. 9 No. 2, E flat
12. Chopin: Nocturne, Op. 15 No. 2, F sharp
13. Strauss/Schulz-Evler: Arabesques on Themes
from The Beautiful Blue Danube(Abridged)
Santa Cruz: From the Suite: Viñetas, Op. 8
14. Galente
15. Grotesque

Rosita Renard, piano


Rosita Renard suffered from a shy and withdrawn personality, which made the strain of concert life too much to bear. It is hard to reconcile the image of this shy, retiring, introverted woman with the grand sweep and power of her playing. Somehow her modesty freed her to ignite before audiences, but the situation caused a tension between the artist and the woman, which precipitated a complete retirement from the stage and returned to Chile…

But in 1945 conductor Erich Kleiber was looking for a pianist to perform a Mozart concerto [in Buenos Aires] and someone suggested Renard. When he heard her play, Kleiber engaged her immediately. Suddenly her career blossomed. She seemed especially at ease with Kleiber and soon became his favorite pianist, playing Mozart concertos with him throughout Latin America.

… The rebirth of her career brought her back to the US. She returned after 22 years to give the only Carnegie Hall concert of her life, the last of her New York recitals, on January 19, 1949. The recital caused a sensation: "Stirring, impressive, enchanting".

Enjoy! for this is all that is left of her playing.

Exact Audio Copy V1.0 beta 3 from 29. August 2011

EAC extraction logfile from 28. January 2014, 19:31

Rosita Renard / Rosita Renard At Carnegie Hall - 1

Used drive : HL-DT-STDVD-RAM GH22NP21 Adapter: 0 ID: 0

Read mode : Secure
Utilize accurate stream : Yes
Defeat audio cache : Yes
Make use of C2 pointers : No

Read offset correction : 102
Overread into Lead-In and Lead-Out : No
Fill up missing offset samples with silence : Yes
Delete leading and trailing silent blocks : No
Null samples used in CRC calculations : Yes
Used interface : Installed external ASPI interface

Used output format : Internal WAV Routines
Sample format : 44.100 Hz; 16 Bit; Stereo


TOC of the extracted CD

Track | Start | Length | Start sector | End sector
––––––––––––––––––––––––––––-
1 | 0:00.00 | 1:34.07 | 0 | 7056
2 | 1:34.07 | 2:21.43 | 7057 | 17674
3 | 3:55.50 | 2:07.70 | 17675 | 27269
4 | 6:03.45 | 1:57.30 | 27270 | 36074
5 | 8:01.00 | 2:41.67 | 36075 | 48216
6 | 10:42.67 | 2:02.15 | 48217 | 57381
7 | 12:45.07 | 4:52.10 | 57382 | 79291
8 | 17:37.17 | 5:24.60 | 79292 | 103651
9 | 23:02.02 | 2:55.00 | 103652 | 116776
10 | 25:57.02 | 9:40.65 | 116777 | 160341
11 | 35:37.67 | 5:37.50 | 160342 | 185666
12 | 41:15.42 | 2:02.53 | 185667 | 194869
13 | 43:18.20 | 2:53.25 | 194870 | 207869
14 | 46:11.45 | 3:14.62 | 207870 | 222481
15 | 49:26.32 | 1:12.70 | 222482 | 227951
16 | 50:39.27 | 1:44.08 | 227952 | 235759
17 | 52:23.35 | 1:23.57 | 235760 | 242041
18 | 53:47.17 | 2:55.35 | 242042 | 255201
19 | 56:42.52 | 2:15.13 | 255202 | 265339
20 | 58:57.65 | 1:08.45 | 265340 | 270484
21 | 60:06.35 | 1:35.32 | 270485 | 277641
22 | 61:41.67 | 1:59.50 | 277642 | 286616


Range status and errors

Selected range

Filename D:\Norton\Rosita-Renard-1949\New Rip for AVAX 28-JAN-2014\RositaRenard_VAI1028-2\CD_01\Rosita Renard - Rosita Renard At Carnegie Hall - 1.wav

Peak level 70.5 %
Extraction speed 2.5 X
Range quality 100.0 %
Copy CRC 5F7CBF0E
Copy OK

No errors occurred


AccurateRip summary

Track 1 accurately ripped (confidence 1) [3D622C28] (AR v1)
Track 2 accurately ripped (confidence 1) [03CAEAD9] (AR v1)
Track 3 accurately ripped (confidence 1) [CE226734] (AR v1)
Track 4 accurately ripped (confidence 1) [77B3D6A9] (AR v1)
Track 5 accurately ripped (confidence 1) [D134E822] (AR v1)
Track 6 accurately ripped (confidence 1) [79C2287A] (AR v1)
Track 7 accurately ripped (confidence 1) [88EDD081] (AR v1)
Track 8 accurately ripped (confidence 1) [BB9D82B5] (AR v1)
Track 9 accurately ripped (confidence 1) [268C62AF] (AR v1)
Track 10 accurately ripped (confidence 1) [E2C6A6DC] (AR v1)
Track 11 accurately ripped (confidence 1) [77C25A6B] (AR v1)
Track 12 accurately ripped (confidence 1) [E6B58E6E] (AR v1)
Track 13 accurately ripped (confidence 1) [5507E0D8] (AR v1)
Track 14 accurately ripped (confidence 1) [C1DC3A0E] (AR v1)
Track 15 accurately ripped (confidence 1) [836D7829] (AR v1)
Track 16 accurately ripped (confidence 1) [2E513D9A] (AR v1)
Track 17 accurately ripped (confidence 1) [9E4ED5C0] (AR v1)
Track 18 accurately ripped (confidence 1) [3450063A] (AR v1)
Track 19 accurately ripped (confidence 1) [C4BCD4E3] (AR v1)
Track 20 accurately ripped (confidence 1) [135FC35F] (AR v1)
Track 21 accurately ripped (confidence 1) [80F43BAC] (AR v1)
Track 22 accurately ripped (confidence 1) [DF000BB5] (AR v1)

All tracks accurately ripped

End of status report

==== Log checksum 8058AFE09951118D156F1C13F6FF1E9DC3D173B7C30E9F83E75D7D0FBD5D18FE ====

Exact Audio Copy V1.0 beta 3 from 29. August 2011

EAC extraction logfile from 28. January 2014, 20:23

Renard, Rosita / Rosita Renard at Carnegie Hall - CD2

Used drive : HL-DT-STDVD-RAM GH22NP21 Adapter: 0 ID: 0

Read mode : Secure
Utilize accurate stream : Yes
Defeat audio cache : Yes
Make use of C2 pointers : No

Read offset correction : 102
Overread into Lead-In and Lead-Out : No
Fill up missing offset samples with silence : Yes
Delete leading and trailing silent blocks : No
Null samples used in CRC calculations : Yes
Used interface : Installed external ASPI interface

Used output format : Internal WAV Routines
Sample format : 44.100 Hz; 16 Bit; Stereo


TOC of the extracted CD

Track | Start | Length | Start sector | End sector
––––––––––––––––––––––––––––-
1 | 0:00.00 | 10:38.22 | 0 | 47871
2 | 10:38.22 | 4:28.38 | 47872 | 68009
3 | 15:06.60 | 2:46.72 | 68010 | 80531
4 | 17:53.57 | 2:54.23 | 80532 | 93604
5 | 20:48.05 | 4:52.62 | 93605 | 115566
6 | 25:40.67 | 6:16.58 | 115567 | 143824
7 | 31:57.50 | 9:57.42 | 143825 | 188641
8 | 41:55.17 | 5:42.65 | 188642 | 214356
9 | 47:38.07 | 2:06.13 | 214357 | 223819
10 | 49:44.20 | 0:47.12 | 223820 | 227356
11 | 50:31.32 | 3:04.23 | 227357 | 241179
12 | 53:35.55 | 3:02.22 | 241180 | 254851
13 | 56:38.02 | 5:51.15 | 254852 | 281191
14 | 62:29.17 | 1:46.08 | 281192 | 289149
15 | 64:15.25 | 1:44.57 | 289150 | 297006


Range status and errors

Selected range

Filename D:\Norton\Rosita-Renard-1949\New Rip for AVAX 28-JAN-2014\RositaRenard_VAI1028-2\CD_02\Renard, Rosita - Rosita Renard at Carnegie Hall - CD2.wav

Peak level 90.5 %
Extraction speed 2.6 X
Range quality 99.9 %
Copy CRC ED6DF729
Copy OK

No errors occurred


AccurateRip summary

Track 1 accurately ripped (confidence 1) [FA741212] (AR v1)
Track 2 accurately ripped (confidence 1) [4AD6AE31] (AR v1)
Track 3 accurately ripped (confidence 1) [FE790495] (AR v1)
Track 4 accurately ripped (confidence 1) [D2CC4019] (AR v1)
Track 5 accurately ripped (confidence 1) [E777EEA9] (AR v1)
Track 6 accurately ripped (confidence 1) [B1A84EAA] (AR v1)
Track 7 accurately ripped (confidence 1) [4EE7A394] (AR v1)
Track 8 accurately ripped (confidence 1) [5E57EC6C] (AR v1)
Track 9 accurately ripped (confidence 1) [C17A8763] (AR v1)
Track 10 accurately ripped (confidence 1) [0A9FAB84] (AR v1)
Track 11 accurately ripped (confidence 1) [D7ED62D0] (AR v1)
Track 12 accurately ripped (confidence 1) [446443CC] (AR v1)
Track 13 accurately ripped (confidence 1) [2C29445C] (AR v1)
Track 14 accurately ripped (confidence 1) [236F0C1E] (AR v1)
Track 15 accurately ripped (confidence 1) [84F44B80] (AR v1)

All tracks accurately ripped

End of status report

==== Log checksum 6EC983306410CD56A0D49CD54250A1040E4ADA180934CFDDF75486A495740114 ====