Subcategories

Rossini - Guglielmo Tell ( 96 Khz. 24 Bit Remastering 2008 )RE-UP

Posted By: jbglx
Rossini - Guglielmo Tell  (  96 Khz.  24 Bit  Remastering  2008 )RE-UP

Rossini - Guglielmo Tell ( 96 Khz. 24 Bit Remastering 2008 )
EAC Rip | FLAC+CUE+LOG | 4CD | Scans | 234Min. | 1085 MB
Label: Decca The Originals Series / Catalogue: 4757723DOR4 /
Opera / LP´s Originally Released in 1980

William Tell is Rossini's last opera, and this Romantic heroic interpretation of Schiller's epic of Wilhelm Tell among his best works. Rossini composed this opera in Paris. The original libretto was written in French, for a French audience, chorus. Parisians by reputation had more refined musical technique and tastes than their Italian counterparts and Rossini applied the best of Italian opera technique, which he had mastered and more refined and complex French musical staging which he studied and adapted during his years in Paris.
Rossini - Guglielmo Tell  (  96 Khz.  24 Bit  Remastering  2008 )RE-UP

All four of the principals are marvelous in this, Rossini's final opera. Milnes is a very convincing Tell in this performance and is in magnificent voice (even interpolating a stupendous High A in his aria "Resta Immobile"), turning in a heartfelt performance indeed. Pavarotti was still riding the crest of his glorious prime when this recording was made and could still be justifiably dubbed "King of the High C's". His Arnoldo is both beautifully and excitingly sung. "O Muto Asil" and "Corriam, Vorriam" will literally have the listener riveted. The High C's and C sharps Pavarotti pulls off here are absolutely breathtaking. One can easily understand why he dubbed this his finest studio recorded performance and what all the fuss was about concerning this great Tenor. Mirella Freni is a very beautifully sung youthful sounding Mathilde. Ghiaurov's Kessler is appropriately evil sounding and the great Bulgarian Bass is in excellent voice here, but I do agree with a previous reviewer who stated that it sounds as if they recorded Ghiaurov in another room. Chailly's conducting on this recording is simply put, flawless. The sound on the recording is wonderful. This is definitely THE recording to own if one wants to hear what REAL vocal pyro-techniques are all about. This is the finest recording of Guigliemo Tell this reviewer has ever had the priveledge to hear. This performance should be an absolute MUST for every operaphile's collection.
Rossini - Guglielmo Tell  (  96 Khz.  24 Bit  Remastering  2008 )RE-UP
Opera in four acts by Gioachino Rossini
sung in Italian

Cast :
Guglielmo Tell : Sherrill Milnes
Arnoldo : Luciano Pavarotti
Matilde : Mirella Freni
Gualterio : Nicolai Ghiaurov

National Philharmonic Orchestra
Riccardo Chailly


Recorded in 1979
Venue : Kingsway Hall , London.
Recording Engineers : Kenneth Wilkinson and John Dunkerley
DECCA

CD1
Exact Audio Copy V1.0 beta 3 from 29. August 2011

EAC extraction logfile from 19. July 2012, 7:46

Riccardo Chailly - National Philharmonic Orchestra / Rossini: Guglielmo Tell [Disc 1]

Used drive : SONY DVD RW DRU-840A Adapter: 0 ID: 1

Read mode : Secure
Utilize accurate stream : Yes
Defeat audio cache : Yes
Make use of C2 pointers : No

Read offset correction : 6
Overread into Lead-In and Lead-Out : No
Fill up missing offset samples with silence : Yes
Delete leading and trailing silent blocks : No
Null samples used in CRC calculations : Yes
Used interface : Native Win32 interface for Win NT & 2000

Used output format : User Defined Encoder
Selected bitrate : 320 kBit/s
Quality : High
Add ID3 tag : No
Command line compressor : C:\Archivos de programa\Exact Audio Copy\FLAC\FLAC.EXE
Additional command line options : -6 -V -T "ARTIST=%artist%" -T "TITLE=%title%" -T "ALBUM=%albumtitle%" -T "DATE=%year%" -T "TRACKNUMBER=%tracknr%" -T "GENRE=%genre%" -T "COMMENT=%comment%" -T "BAND=%albuminterpret%" -T "ALBUMARTIST=%albuminterpret%" -T "COMPOSER=%composer%" %haslyrics%–tag-from-file=LYRICS="%lyricsfile%"%haslyrics% -T "DISCNUMBER=%cdnumber%" -T "TOTALDISCS=%totalcds%" -T "TOTALTRACKS=%numtracks%" %hascover%–picture="%coverfile%"%hascover% %source% -o %dest%


TOC of the extracted CD

Track | Start | Length | Start sector | End sector
––––––––––––––––––––––––––––-
1 | 0:00.00 | 12:21.16 | 0 | 55590
2 | 12:21.16 | 4:30.31 | 55591 | 75871
3 | 16:51.47 | 5:08.03 | 75872 | 98974
4 | 21:59.50 | 6:37.06 | 98975 | 128755
5 | 28:36.56 | 2:38.15 | 128756 | 140620
6 | 31:14.71 | 1:05.63 | 140621 | 145558
7 | 32:20.59 | 3:13.60 | 145559 | 160093
8 | 35:34.44 | 9:01.42 | 160094 | 200710
9 | 44:36.11 | 2:16.54 | 200711 | 210964
10 | 46:52.65 | 4:08.23 | 210965 | 229587
11 | 51:01.13 | 3:11.06 | 229588 | 243918
12 | 54:12.19 | 4:25.47 | 243919 | 263840
13 | 58:37.66 | 5:23.29 | 263841 | 288094
14 | 64:01.20 | 3:57.71 | 288095 | 305940


Range status and errors

Selected range

Filename E:\MUSICA\Mi Música\Rossini - Guglielmo Tell\Rossini - Guglielmo Tell - CD 1\CD\Riccardo Chailly - National Philharmonic Orchestra - Rossini- Guglielmo Tell [Disc 1].wav

Peak level 100.0 %
Extraction speed 8.2 X
Range quality 100.0 %
Test CRC A157F999
Copy CRC A157F999
Copy OK

No errors occurred


AccurateRip summary

Track 1 accurately ripped (confidence 2) [991D1F44] (AR v2)
Track 2 accurately ripped (confidence 2) [03C5678D] (AR v2)
Track 3 accurately ripped (confidence 2) [B764707F] (AR v2)
Track 4 accurately ripped (confidence 2) [2078AFB4] (AR v2)
Track 5 accurately ripped (confidence 2) [868627CB] (AR v2)
Track 6 accurately ripped (confidence 2) [70B9D086] (AR v2)
Track 7 accurately ripped (confidence 2) [829B2C42] (AR v2)
Track 8 accurately ripped (confidence 2) [456F3AC6] (AR v2)
Track 9 accurately ripped (confidence 2) [FE317D1B] (AR v2)
Track 10 accurately ripped (confidence 2) [0EB95382] (AR v2)
Track 11 accurately ripped (confidence 2) [EF7F95A1] (AR v2)
Track 12 accurately ripped (confidence 2) [25F98F8D] (AR v2)
Track 13 accurately ripped (confidence 2) [48FD443B] (AR v2)
Track 14 accurately ripped (confidence 2) [3652BC51] (AR v2)

All tracks accurately ripped

End of status report

==== Log checksum B45154A32B34F2055C229127DB3A1CA312B6916DE8A5745F6429F29F9BD92D03 ====

––––––––––––––––––––––––––––––

Exact Audio Copy V1.0 beta 3 from 29. August 2011

EAC extraction logfile from 19. July 2012, 7:46

Riccardo Chailly - National Philharmonic Orchestra / Rossini: Guglielmo Tell [Disc 1]

Used drive : SONY DVD RW DRU-840A Adapter: 0 ID: 1

Read mode : Secure
Utilize accurate stream : Yes
Defeat audio cache : Yes
Make use of C2 pointers : No

Read offset correction : 6
Overread into Lead-In and Lead-Out : No
Fill up missing offset samples with silence : Yes
Delete leading and trailing silent blocks : No
Null samples used in CRC calculations : Yes
Used interface : Native Win32 interface for Win NT & 2000

Used output format : User Defined Encoder
Selected bitrate : 320 kBit/s
Quality : High
Add ID3 tag : No
Command line compressor : C:\Archivos de programa\Exact Audio Copy\FLAC\FLAC.EXE
Additional command line options : -6 -V -T "ARTIST=%artist%" -T "TITLE=%title%" -T "ALBUM=%albumtitle%" -T "DATE=%year%" -T "TRACKNUMBER=%tracknr%" -T "GENRE=%genre%" -T "COMMENT=%comment%" -T "BAND=%albuminterpret%" -T "ALBUMARTIST=%albuminterpret%" -T "COMPOSER=%composer%" %haslyrics%–tag-from-file=LYRICS="%lyricsfile%"%haslyrics% -T "DISCNUMBER=%cdnumber%" -T "TOTALDISCS=%totalcds%" -T "TOTALTRACKS=%numtracks%" %hascover%–picture="%coverfile%"%hascover% %source% -o %dest%


TOC of the extracted CD

Track | Start | Length | Start sector | End sector
––––––––––––––––––––––––––––-
1 | 0:00.00 | 12:21.16 | 0 | 55590
2 | 12:21.16 | 4:30.31 | 55591 | 75871
3 | 16:51.47 | 5:08.03 | 75872 | 98974
4 | 21:59.50 | 6:37.06 | 98975 | 128755
5 | 28:36.56 | 2:38.15 | 128756 | 140620
6 | 31:14.71 | 1:05.63 | 140621 | 145558
7 | 32:20.59 | 3:13.60 | 145559 | 160093
8 | 35:34.44 | 9:01.42 | 160094 | 200710
9 | 44:36.11 | 2:16.54 | 200711 | 210964
10 | 46:52.65 | 4:08.23 | 210965 | 229587
11 | 51:01.13 | 3:11.06 | 229588 | 243918
12 | 54:12.19 | 4:25.47 | 243919 | 263840
13 | 58:37.66 | 5:23.29 | 263841 | 288094
14 | 64:01.20 | 3:57.71 | 288095 | 305940


Range status and errors

Selected range

Filename E:\MUSICA\Mi Música\Rossini - Guglielmo Tell\Rossini - Guglielmo Tell - CD 1\CD\Riccardo Chailly - National Philharmonic Orchestra - Rossini- Guglielmo Tell [Disc 1].wav

Peak level 100.0 %
Extraction speed 8.2 X
Range quality 100.0 %
Test CRC A157F999
Copy CRC A157F999
Copy OK

No errors occurred


AccurateRip summary

Track 1 accurately ripped (confidence 2) [991D1F44] (AR v2)
Track 2 accurately ripped (confidence 2) [03C5678D] (AR v2)
Track 3 accurately ripped (confidence 2) [B764707F] (AR v2)
Track 4 accurately ripped (confidence 2) [2078AFB4] (AR v2)
Track 5 accurately ripped (confidence 2) [868627CB] (AR v2)
Track 6 accurately ripped (confidence 2) [70B9D086] (AR v2)
Track 7 accurately ripped (confidence 2) [829B2C42] (AR v2)
Track 8 accurately ripped (confidence 2) [456F3AC6] (AR v2)
Track 9 accurately ripped (confidence 2) [FE317D1B] (AR v2)
Track 10 accurately ripped (confidence 2) [0EB95382] (AR v2)
Track 11 accurately ripped (confidence 2) [EF7F95A1] (AR v2)
Track 12 accurately ripped (confidence 2) [25F98F8D] (AR v2)
Track 13 accurately ripped (confidence 2) [48FD443B] (AR v2)
Track 14 accurately ripped (confidence 2) [3652BC51] (AR v2)

All tracks accurately ripped

End of status report

==== Log checksum B45154A32B34F2055C229127DB3A1CA312B6916DE8A5745F6429F29F9BD92D03 ====

CD2
Exact Audio Copy V1.0 beta 3 from 29. August 2011

EAC extraction logfile from 19. July 2012, 8:09

Riccardo Chailly - National Philharmonic Orchestra / Rossini: Guglielmo Tell [Disc 2]

Used drive : SONY DVD RW DRU-840A Adapter: 0 ID: 1

Read mode : Secure
Utilize accurate stream : Yes
Defeat audio cache : Yes
Make use of C2 pointers : No

Read offset correction : 6
Overread into Lead-In and Lead-Out : No
Fill up missing offset samples with silence : Yes
Delete leading and trailing silent blocks : No
Null samples used in CRC calculations : Yes
Used interface : Native Win32 interface for Win NT & 2000

Used output format : User Defined Encoder
Selected bitrate : 320 kBit/s
Quality : High
Add ID3 tag : No
Command line compressor : C:\Archivos de programa\Exact Audio Copy\FLAC\FLAC.EXE
Additional command line options : -6 -V -T "ARTIST=%artist%" -T "TITLE=%title%" -T "ALBUM=%albumtitle%" -T "DATE=%year%" -T "TRACKNUMBER=%tracknr%" -T "GENRE=%genre%" -T "COMMENT=%comment%" -T "BAND=%albuminterpret%" -T "ALBUMARTIST=%albuminterpret%" -T "COMPOSER=%composer%" %haslyrics%–tag-from-file=LYRICS="%lyricsfile%"%haslyrics% -T "DISCNUMBER=%cdnumber%" -T "TOTALDISCS=%totalcds%" -T "TOTALTRACKS=%numtracks%" %hascover%–picture="%coverfile%"%hascover% %source% -o %dest%


TOC of the extracted CD

Track | Start | Length | Start sector | End sector
––––––––––––––––––––––––––––-
1 | 0:00.00 | 3:49.14 | 0 | 17188
2 | 3:49.14 | 3:13.30 | 17189 | 31693
3 | 7:02.44 | 2:48.06 | 31694 | 44299
4 | 9:50.50 | 4:15.19 | 44300 | 63443
5 | 14:05.69 | 4:02.40 | 63444 | 81633
6 | 18:08.34 | 3:27.55 | 81634 | 97213
7 | 21:36.14 | 5:37.57 | 97214 | 122545
8 | 27:13.71 | 3:00.67 | 122546 | 136112
9 | 30:14.63 | 10:27.23 | 136113 | 183160
10 | 40:42.11 | 2:57.57 | 183161 | 196492
11 | 43:39.68 | 11:15.54 | 196493 | 247171
12 | 54:55.47 | 4:06.39 | 247172 | 265660
13 | 59:02.11 | 4:50.00 | 265661 | 287410
14 | 63:52.11 | 2:48.38 | 287411 | 300048
15 | 66:40.49 | 3:21.51 | 300049 | 315174
16 | 70:02.25 | 3:32.69 | 315175 | 331143


Range status and errors

Selected range

Filename E:\MUSICA\Mi Música\Rossini - Guglielmo Tell\Rossini - Guglielmo Tell - CD 2\Riccardo Chailly - National Philharmonic Orchestra - Rossini- Guglielmo Tell [Disc 2].wav

Peak level 100.0 %
Extraction speed 8.3 X
Range quality 99.9 %
Test CRC 8955C1A1
Copy CRC 8955C1A1
Copy OK

No errors occurred


AccurateRip summary

Track 1 accurately ripped (confidence 2) [8991DB97] (AR v2)
Track 2 accurately ripped (confidence 2) [80802F1C] (AR v2)
Track 3 accurately ripped (confidence 2) [9E7ABE0F] (AR v2)
Track 4 accurately ripped (confidence 2) [08A76A79] (AR v2)
Track 5 accurately ripped (confidence 2) [B0DEF96F] (AR v2)
Track 6 accurately ripped (confidence 2) [292AB689] (AR v2)
Track 7 accurately ripped (confidence 2) [02243668] (AR v2)
Track 8 accurately ripped (confidence 2) [AA754E8C] (AR v2)
Track 9 accurately ripped (confidence 2) [9604C79E] (AR v2)
Track 10 accurately ripped (confidence 2) [91556FEA] (AR v2)
Track 11 accurately ripped (confidence 2) [0364ADBE] (AR v2)
Track 12 accurately ripped (confidence 2) [E9CFC953] (AR v2)
Track 13 accurately ripped (confidence 2) [49D5BCB9] (AR v2)
Track 14 accurately ripped (confidence 2) [8BF322D1] (AR v2)
Track 15 accurately ripped (confidence 2) [5CE9A2A7] (AR v2)
Track 16 accurately ripped (confidence 4) [791D15B1] (AR v1)

All tracks accurately ripped

End of status report

==== Log checksum CEEC63E7357F9BF025A053536B21E9B22AE70021C2199FBA3B15711881195CA9 ====

––––––––––––––––––––––––––––––

Exact Audio Copy V1.0 beta 3 from 29. August 2011

EAC extraction logfile from 19. July 2012, 8:09

Riccardo Chailly - National Philharmonic Orchestra / Rossini: Guglielmo Tell [Disc 2]

Used drive : SONY DVD RW DRU-840A Adapter: 0 ID: 1

Read mode : Secure
Utilize accurate stream : Yes
Defeat audio cache : Yes
Make use of C2 pointers : No

Read offset correction : 6
Overread into Lead-In and Lead-Out : No
Fill up missing offset samples with silence : Yes
Delete leading and trailing silent blocks : No
Null samples used in CRC calculations : Yes
Used interface : Native Win32 interface for Win NT & 2000

Used output format : User Defined Encoder
Selected bitrate : 320 kBit/s
Quality : High
Add ID3 tag : No
Command line compressor : C:\Archivos de programa\Exact Audio Copy\FLAC\FLAC.EXE
Additional command line options : -6 -V -T "ARTIST=%artist%" -T "TITLE=%title%" -T "ALBUM=%albumtitle%" -T "DATE=%year%" -T "TRACKNUMBER=%tracknr%" -T "GENRE=%genre%" -T "COMMENT=%comment%" -T "BAND=%albuminterpret%" -T "ALBUMARTIST=%albuminterpret%" -T "COMPOSER=%composer%" %haslyrics%–tag-from-file=LYRICS="%lyricsfile%"%haslyrics% -T "DISCNUMBER=%cdnumber%" -T "TOTALDISCS=%totalcds%" -T "TOTALTRACKS=%numtracks%" %hascover%–picture="%coverfile%"%hascover% %source% -o %dest%


TOC of the extracted CD

Track | Start | Length | Start sector | End sector
––––––––––––––––––––––––––––-
1 | 0:00.00 | 3:49.14 | 0 | 17188
2 | 3:49.14 | 3:13.30 | 17189 | 31693
3 | 7:02.44 | 2:48.06 | 31694 | 44299
4 | 9:50.50 | 4:15.19 | 44300 | 63443
5 | 14:05.69 | 4:02.40 | 63444 | 81633
6 | 18:08.34 | 3:27.55 | 81634 | 97213
7 | 21:36.14 | 5:37.57 | 97214 | 122545
8 | 27:13.71 | 3:00.67 | 122546 | 136112
9 | 30:14.63 | 10:27.23 | 136113 | 183160
10 | 40:42.11 | 2:57.57 | 183161 | 196492
11 | 43:39.68 | 11:15.54 | 196493 | 247171
12 | 54:55.47 | 4:06.39 | 247172 | 265660
13 | 59:02.11 | 4:50.00 | 265661 | 287410
14 | 63:52.11 | 2:48.38 | 287411 | 300048
15 | 66:40.49 | 3:21.51 | 300049 | 315174
16 | 70:02.25 | 3:32.69 | 315175 | 331143


Range status and errors

Selected range

Filename E:\MUSICA\Mi Música\Rossini - Guglielmo Tell\Rossini - Guglielmo Tell - CD 2\Riccardo Chailly - National Philharmonic Orchestra - Rossini- Guglielmo Tell [Disc 2].wav

Peak level 100.0 %
Extraction speed 8.3 X
Range quality 99.9 %
Test CRC 8955C1A1
Copy CRC 8955C1A1
Copy OK

No errors occurred


AccurateRip summary

Track 1 accurately ripped (confidence 2) [8991DB97] (AR v2)
Track 2 accurately ripped (confidence 2) [80802F1C] (AR v2)
Track 3 accurately ripped (confidence 2) [9E7ABE0F] (AR v2)
Track 4 accurately ripped (confidence 2) [08A76A79] (AR v2)
Track 5 accurately ripped (confidence 2) [B0DEF96F] (AR v2)
Track 6 accurately ripped (confidence 2) [292AB689] (AR v2)
Track 7 accurately ripped (confidence 2) [02243668] (AR v2)
Track 8 accurately ripped (confidence 2) [AA754E8C] (AR v2)
Track 9 accurately ripped (confidence 2) [9604C79E] (AR v2)
Track 10 accurately ripped (confidence 2) [91556FEA] (AR v2)
Track 11 accurately ripped (confidence 2) [0364ADBE] (AR v2)
Track 12 accurately ripped (confidence 2) [E9CFC953] (AR v2)
Track 13 accurately ripped (confidence 2) [49D5BCB9] (AR v2)
Track 14 accurately ripped (confidence 2) [8BF322D1] (AR v2)
Track 15 accurately ripped (confidence 2) [5CE9A2A7] (AR v2)
Track 16 accurately ripped (confidence 4) [791D15B1] (AR v1)

All tracks accurately ripped

End of status report

==== Log checksum CEEC63E7357F9BF025A053536B21E9B22AE70021C2199FBA3B15711881195CA9 ====

CD3
Exact Audio Copy V1.0 beta 3 from 29. August 2011

EAC extraction logfile from 19. July 2012, 8:28

Riccardo Chailly - National Philharmonic Orchestra / Rossini: Guglielmo Tell [Disc 3]

Used drive : SONY DVD RW DRU-840A Adapter: 0 ID: 1

Read mode : Secure
Utilize accurate stream : Yes
Defeat audio cache : Yes
Make use of C2 pointers : No

Read offset correction : 6
Overread into Lead-In and Lead-Out : No
Fill up missing offset samples with silence : Yes
Delete leading and trailing silent blocks : No
Null samples used in CRC calculations : Yes
Used interface : Native Win32 interface for Win NT & 2000

Used output format : User Defined Encoder
Selected bitrate : 320 kBit/s
Quality : High
Add ID3 tag : No
Command line compressor : C:\Archivos de programa\Exact Audio Copy\FLAC\FLAC.EXE
Additional command line options : -6 -V -T "ARTIST=%artist%" -T "TITLE=%title%" -T "ALBUM=%albumtitle%" -T "DATE=%year%" -T "TRACKNUMBER=%tracknr%" -T "GENRE=%genre%" -T "COMMENT=%comment%" -T "BAND=%albuminterpret%" -T "ALBUMARTIST=%albuminterpret%" -T "COMPOSER=%composer%" %haslyrics%–tag-from-file=LYRICS="%lyricsfile%"%haslyrics% -T "DISCNUMBER=%cdnumber%" -T "TOTALDISCS=%totalcds%" -T "TOTALTRACKS=%numtracks%" %hascover%–picture="%coverfile%"%hascover% %source% -o %dest%


TOC of the extracted CD

Track | Start | Length | Start sector | End sector
––––––––––––––––––––––––––––-
1 | 0:00.00 | 2:23.57 | 0 | 10781
2 | 2:23.57 | 8:06.18 | 10782 | 47249
3 | 10:30.00 | 7:12.18 | 47250 | 79667
4 | 17:42.18 | 9:30.03 | 79668 | 122420
5 | 27:12.21 | 4:59.00 | 122421 | 144845
6 | 32:11.21 | 2:20.20 | 144846 | 155365
7 | 34:31.41 | 3:05.70 | 155366 | 169310
8 | 37:37.36 | 6:17.40 | 169311 | 197625
9 | 43:55.01 | 4:09.38 | 197626 | 216338
10 | 48:04.39 | 5:24.61 | 216339 | 240699
11 | 53:29.25 | 2:09.10 | 240700 | 250384
12 | 55:38.35 | 2:08.38 | 250385 | 260022


Range status and errors

Selected range

Filename E:\MUSICA\Mi Música\Rossini - Guglielmo Tell\Rossini - Guglielmo Tell - CD 3\Riccardo Chailly - National Philharmonic Orchestra - Rossini- Guglielmo Tell [Disc 3].wav

Peak level 100.0 %
Extraction speed 7.4 X
Range quality 100.0 %
Test CRC 96D2BDA9
Copy CRC 96D2BDA9
Copy OK

No errors occurred


AccurateRip summary

Track 1 accurately ripped (confidence 2) [80D4F4E9] (AR v2)
Track 2 accurately ripped (confidence 2) [81C2AE2D] (AR v2)
Track 3 accurately ripped (confidence 2) [6C1EEB67] (AR v2)
Track 4 accurately ripped (confidence 2) [7B3A8101] (AR v2)
Track 5 accurately ripped (confidence 2) [1D58AC32] (AR v2)
Track 6 accurately ripped (confidence 2) [C55656E3] (AR v2)
Track 7 accurately ripped (confidence 2) [93DA3966] (AR v2)
Track 8 accurately ripped (confidence 2) [EF21DF7F] (AR v2)
Track 9 accurately ripped (confidence 2) [36F8434D] (AR v2)
Track 10 accurately ripped (confidence 2) [322BAAB2] (AR v2)
Track 11 accurately ripped (confidence 2) [9A953F97] (AR v2)
Track 12 accurately ripped (confidence 2) [522334B4] (AR v2)

All tracks accurately ripped

End of status report

==== Log checksum 2F87BF2AA77E80D6E880ABACA967D629983D195F358F09C2DB60CDDBF08BD173 ====

––––––––––––––––––––––––––––––

Exact Audio Copy V1.0 beta 3 from 29. August 2011

EAC extraction logfile from 19. July 2012, 8:28

Riccardo Chailly - National Philharmonic Orchestra / Rossini: Guglielmo Tell [Disc 3]

Used drive : SONY DVD RW DRU-840A Adapter: 0 ID: 1

Read mode : Secure
Utilize accurate stream : Yes
Defeat audio cache : Yes
Make use of C2 pointers : No

Read offset correction : 6
Overread into Lead-In and Lead-Out : No
Fill up missing offset samples with silence : Yes
Delete leading and trailing silent blocks : No
Null samples used in CRC calculations : Yes
Used interface : Native Win32 interface for Win NT & 2000

Used output format : User Defined Encoder
Selected bitrate : 320 kBit/s
Quality : High
Add ID3 tag : No
Command line compressor : C:\Archivos de programa\Exact Audio Copy\FLAC\FLAC.EXE
Additional command line options : -6 -V -T "ARTIST=%artist%" -T "TITLE=%title%" -T "ALBUM=%albumtitle%" -T "DATE=%year%" -T "TRACKNUMBER=%tracknr%" -T "GENRE=%genre%" -T "COMMENT=%comment%" -T "BAND=%albuminterpret%" -T "ALBUMARTIST=%albuminterpret%" -T "COMPOSER=%composer%" %haslyrics%–tag-from-file=LYRICS="%lyricsfile%"%haslyrics% -T "DISCNUMBER=%cdnumber%" -T "TOTALDISCS=%totalcds%" -T "TOTALTRACKS=%numtracks%" %hascover%–picture="%coverfile%"%hascover% %source% -o %dest%


TOC of the extracted CD

Track | Start | Length | Start sector | End sector
––––––––––––––––––––––––––––-
1 | 0:00.00 | 2:23.57 | 0 | 10781
2 | 2:23.57 | 8:06.18 | 10782 | 47249
3 | 10:30.00 | 7:12.18 | 47250 | 79667
4 | 17:42.18 | 9:30.03 | 79668 | 122420
5 | 27:12.21 | 4:59.00 | 122421 | 144845
6 | 32:11.21 | 2:20.20 | 144846 | 155365
7 | 34:31.41 | 3:05.70 | 155366 | 169310
8 | 37:37.36 | 6:17.40 | 169311 | 197625
9 | 43:55.01 | 4:09.38 | 197626 | 216338
10 | 48:04.39 | 5:24.61 | 216339 | 240699
11 | 53:29.25 | 2:09.10 | 240700 | 250384
12 | 55:38.35 | 2:08.38 | 250385 | 260022


Range status and errors

Selected range

Filename E:\MUSICA\Mi Música\Rossini - Guglielmo Tell\Rossini - Guglielmo Tell - CD 3\Riccardo Chailly - National Philharmonic Orchestra - Rossini- Guglielmo Tell [Disc 3].wav

Peak level 100.0 %
Extraction speed 7.4 X
Range quality 100.0 %
Test CRC 96D2BDA9
Copy CRC 96D2BDA9
Copy OK

No errors occurred


AccurateRip summary

Track 1 accurately ripped (confidence 2) [80D4F4E9] (AR v2)
Track 2 accurately ripped (confidence 2) [81C2AE2D] (AR v2)
Track 3 accurately ripped (confidence 2) [6C1EEB67] (AR v2)
Track 4 accurately ripped (confidence 2) [7B3A8101] (AR v2)
Track 5 accurately ripped (confidence 2) [1D58AC32] (AR v2)
Track 6 accurately ripped (confidence 2) [C55656E3] (AR v2)
Track 7 accurately ripped (confidence 2) [93DA3966] (AR v2)
Track 8 accurately ripped (confidence 2) [EF21DF7F] (AR v2)
Track 9 accurately ripped (confidence 2) [36F8434D] (AR v2)
Track 10 accurately ripped (confidence 2) [322BAAB2] (AR v2)
Track 11 accurately ripped (confidence 2) [9A953F97] (AR v2)
Track 12 accurately ripped (confidence 2) [522334B4] (AR v2)

All tracks accurately ripped

End of status report

==== Log checksum 2F87BF2AA77E80D6E880ABACA967D629983D195F358F09C2DB60CDDBF08BD173 ====

CD4
Exact Audio Copy V1.0 beta 3 from 29. August 2011

EAC extraction logfile from 19. July 2012, 9:19

Riccardo Chailly - National Philharmonic Orchestra / Rossini: Guglielmo Tell [Disc 4]

Used drive : SONY DVD RW DRU-840A Adapter: 0 ID: 1

Read mode : Secure
Utilize accurate stream : Yes
Defeat audio cache : Yes
Make use of C2 pointers : No

Read offset correction : 6
Overread into Lead-In and Lead-Out : No
Fill up missing offset samples with silence : Yes
Delete leading and trailing silent blocks : No
Null samples used in CRC calculations : Yes
Used interface : Native Win32 interface for Win NT & 2000

Used output format : User Defined Encoder
Selected bitrate : 320 kBit/s
Quality : High
Add ID3 tag : No
Command line compressor : C:\Archivos de programa\Exact Audio Copy\FLAC\FLAC.EXE
Additional command line options : -6 -V -T "ARTIST=%artist%" -T "TITLE=%title%" -T "ALBUM=%albumtitle%" -T "DATE=%year%" -T "TRACKNUMBER=%tracknr%" -T "GENRE=%genre%" -T "COMMENT=%comment%" -T "BAND=%albuminterpret%" -T "ALBUMARTIST=%albuminterpret%" -T "COMPOSER=%composer%" %haslyrics%–tag-from-file=LYRICS="%lyricsfile%"%haslyrics% -T "DISCNUMBER=%cdnumber%" -T "TOTALDISCS=%totalcds%" -T "TOTALTRACKS=%numtracks%" %hascover%–picture="%coverfile%"%hascover% %source% -o %dest%


TOC of the extracted CD

Track | Start | Length | Start sector | End sector
––––––––––––––––––––––––––––-
1 | 0:00.00 | 3:44.46 | 0 | 16845
2 | 3:44.46 | 9:34.24 | 16846 | 59919
3 | 13:18.70 | 2:18.40 | 59920 | 70309
4 | 15:37.35 | 5:27.71 | 70310 | 94905
5 | 21:05.31 | 2:18.39 | 94906 | 105294
6 | 23:23.70 | 2:59.26 | 105295 | 118745
7 | 26:23.21 | 2:43.06 | 118746 | 130976
8 | 29:06.27 | 3:17.27 | 130977 | 145778
9 | 32:23.54 | 3:14.03 | 145779 | 160331


Range status and errors

Selected range

Filename E:\MUSICA\Mi Música\Rossini - Guglielmo Tell\Rossini - Guglielmo Tell - CD 4\Riccardo Chailly - National Philharmonic Orchestra - Rossini- Guglielmo Tell [Disc 4].wav

Peak level 100.0 %
Extraction speed 2.6 X
Range quality 99.9 %
Test CRC D3B5FE2C
Copy CRC D3B5FE2C
Copy OK

No errors occurred


AccurateRip summary

Track 1 accurately ripped (confidence 2) [DFEB6059] (AR v2)
Track 2 accurately ripped (confidence 2) [20B1D450] (AR v2)
Track 3 accurately ripped (confidence 2) [8812BECF] (AR v2)
Track 4 accurately ripped (confidence 2) [634CFE97] (AR v2)
Track 5 accurately ripped (confidence 2) [9F3A89AE] (AR v2)
Track 6 accurately ripped (confidence 2) [A095232D] (AR v2)
Track 7 accurately ripped (confidence 2) [85312901] (AR v2)
Track 8 accurately ripped (confidence 2) [61265399] (AR v2)
Track 9 accurately ripped (confidence 2) [0BC9D4FD] (AR v2)

All tracks accurately ripped

End of status report

==== Log checksum 92D5C8A80B4CB37F6667864AFB1ECDA5CF3FB16B45D10839ECFCAFFDE327D5F6 ====

––––––––––––––––––––––––––––––

Exact Audio Copy V1.0 beta 3 from 29. August 2011

EAC extraction logfile from 19. July 2012, 9:19

Riccardo Chailly - National Philharmonic Orchestra / Rossini: Guglielmo Tell [Disc 4]

Used drive : SONY DVD RW DRU-840A Adapter: 0 ID: 1

Read mode : Secure
Utilize accurate stream : Yes
Defeat audio cache : Yes
Make use of C2 pointers : No

Read offset correction : 6
Overread into Lead-In and Lead-Out : No
Fill up missing offset samples with silence : Yes
Delete leading and trailing silent blocks : No
Null samples used in CRC calculations : Yes
Used interface : Native Win32 interface for Win NT & 2000

Used output format : User Defined Encoder
Selected bitrate : 320 kBit/s
Quality : High
Add ID3 tag : No
Command line compressor : C:\Archivos de programa\Exact Audio Copy\FLAC\FLAC.EXE
Additional command line options : -6 -V -T "ARTIST=%artist%" -T "TITLE=%title%" -T "ALBUM=%albumtitle%" -T "DATE=%year%" -T "TRACKNUMBER=%tracknr%" -T "GENRE=%genre%" -T "COMMENT=%comment%" -T "BAND=%albuminterpret%" -T "ALBUMARTIST=%albuminterpret%" -T "COMPOSER=%composer%" %haslyrics%–tag-from-file=LYRICS="%lyricsfile%"%haslyrics% -T "DISCNUMBER=%cdnumber%" -T "TOTALDISCS=%totalcds%" -T "TOTALTRACKS=%numtracks%" %hascover%–picture="%coverfile%"%hascover% %source% -o %dest%


TOC of the extracted CD

Track | Start | Length | Start sector | End sector
––––––––––––––––––––––––––––-
1 | 0:00.00 | 3:44.46 | 0 | 16845
2 | 3:44.46 | 9:34.24 | 16846 | 59919
3 | 13:18.70 | 2:18.40 | 59920 | 70309
4 | 15:37.35 | 5:27.71 | 70310 | 94905
5 | 21:05.31 | 2:18.39 | 94906 | 105294
6 | 23:23.70 | 2:59.26 | 105295 | 118745
7 | 26:23.21 | 2:43.06 | 118746 | 130976
8 | 29:06.27 | 3:17.27 | 130977 | 145778
9 | 32:23.54 | 3:14.03 | 145779 | 160331


Range status and errors

Selected range

Filename E:\MUSICA\Mi Música\Rossini - Guglielmo Tell\Rossini - Guglielmo Tell - CD 4\Riccardo Chailly - National Philharmonic Orchestra - Rossini- Guglielmo Tell [Disc 4].wav

Peak level 100.0 %
Extraction speed 2.6 X
Range quality 99.9 %
Test CRC D3B5FE2C
Copy CRC D3B5FE2C
Copy OK

No errors occurred


AccurateRip summary

Track 1 accurately ripped (confidence 2) [DFEB6059] (AR v2)
Track 2 accurately ripped (confidence 2) [20B1D450] (AR v2)
Track 3 accurately ripped (confidence 2) [8812BECF] (AR v2)
Track 4 accurately ripped (confidence 2) [634CFE97] (AR v2)
Track 5 accurately ripped (confidence 2) [9F3A89AE] (AR v2)
Track 6 accurately ripped (confidence 2) [A095232D] (AR v2)
Track 7 accurately ripped (confidence 2) [85312901] (AR v2)
Track 8 accurately ripped (confidence 2) [61265399] (AR v2)
Track 9 accurately ripped (confidence 2) [0BC9D4FD] (AR v2)

All tracks accurately ripped

End of status report

==== Log checksum 92D5C8A80B4CB37F6667864AFB1ECDA5CF3FB16B45D10839ECFCAFFDE327D5F6 ====