Tags
Language
Tags

Andrea Battistoni, Orchestra e Coro del Teatro Regio di Parma - Rossini: Il Barbiere di Siviglia (2012) [Blu-Ray]

Posted By: Vilboa
Andrea Battistoni, Orchestra e Coro del Teatro Regio di Parma - Rossini: Il Barbiere di Siviglia (2012) [Blu-Ray]

Andrea Battistoni, Orchestra e Coro del Teatro Regio di Parma - Rossini: Il Barbiere di Siviglia (2012) [Blu-Ray]
BluRay | BDMV | MPEG-4 AVC Video / 23931 kbps / 1080i / 29,970 fps | 170 min | 39,8 Gb
Audio1: Italian / LPCM Audio / 2.0 / 24-bit | Audio2: DTS-HD Master Audio / 5.1 / 48 kHz / 3985 kbps / 24-bit

BluRay-rip | AVC | MKV 1920x1080 / 6215 kbps / 29,97 fps | 170 min | 9,18 Gb
Audio: Italian / DTS / 6ch / 48.0 KHz / 24-bit
Classical | Arthaus Musik | Sub: Italian, English, German, French, Spanish, Japanese, Korean

In Parma, where audiences are considered the most discerning in all Italy, the benchmark for vocal artists is set traditionally high. Operagoers here are intimately familiar with the works of their favourites, from Rossini to Puccini, and know every tricky corner by heart. God forbid any singer who fails to accomplish the task without due seemliness Unsurprisingly, then, this performance attempts no directorial experiments. The main setting for this realistically inspired production both indoors and out is Rosinas house, which is converted as required into its constituent parts. One happily turns a blind eye to a (historically authentically dressed) protagonist occasionally being seconded to move a piece of stage scenery. Stage presence, vocal perfection and above all the audibly and visibly gleeful participation of all performers in the action are a more than adequate payoff for the intellectual flights of fancy of other interpretations. Our rewards are found on the one hand in the precise and sure-footed direction of Stefano Vizioli. All performers know exactly the role they are required to play and how best to carry it off. On the other hand, the singers on stage and instrumentalists in the pit seem to enter a new dimension as soon as the Rossini machine gets up to speed. The spirited orchestra plays under the magical baton of Andrea Battistoni, born in Verona in 1987 and appointed principal guest conductor at Parmas Teatro Regio in January 2011.

Cast:
Il Conte d'Almaviva – Dmitry Korchak
Bartolo – Bruno Praticò
Rosina – Ketevan Kemoklidze
Figaro – Luca Salsi
Don Basilio – Giovanni Furlanetto
Fiorello – Gabriele Bolletta
Ambrogio – Noris Borgogelli
Berta – Natalia Roman
Orchestra e Coro del Teatro Regio di Parma
Conductor - Andrea Battistoni


Disc Title: IL BARBIERE
Disc Size: 42 738 557 575 bytes
Protection: AACS
BD-Java: No
Playlist: 00009.MPLS
Size: 40 754 989 056 bytes
Length: 2:49:31.528
Total Bitrate: 32,05 Mbps
Video: MPEG-4 AVC Video / 23931 kbps / 1080i / 29,970 fps / 16:9 / High Profile 4.1
Audio: Italian / LPCM Audio / 2.0 / 48 kHz / 2304 kbps / 24-bit
Audio: Italian / DTS-HD Master Audio / 5.1 / 48 kHz / 3985 kbps / 24-bit (DTS Core: 5.1 / 48 kHz / 1509 kbps / 24-bit)
Subtitle: Italian / 18,594 kbps
Subtitle: English / 19,266 kbps
Subtitle: German / 21,466 kbps
Subtitle: French / 20,068 kbps
Subtitle: Spanish / 19,053 kbps
Subtitle: Japanese / 19,450 kbps
Subtitle: Korean / 18,339 kbps


General
Unique ID : 190295603174656969512736910054679379882 (0x8F29999C7AA0A140B40AD88DCC33FFAA)
Complete name : C:\ll_barbiere_di_Siviglia.mkv
Format : Matroska
Format version : Version 2
File size : 9.19 GiB
Duration : 2h 49mn
Overall bit rate : 7 771 Kbps
Movie name : ll_barbiere_di_Siviglia
Encoded date : UTC 2016-05-31 10:53:44
Writing application : DVDFab 9.1.6.8
Writing library : libebml v0.7.8 + libmatroska v0.8.1

Video
ID : 1
Format : AVC
Format/Info : Advanced Video Codec
Format profile : High@L4.1
Format settings, CABAC : Yes
Format settings, ReFrames : 2 frames
Codec ID : V_MPEG4/ISO/AVC
Duration : 2h 49mn
Bit rate : 6 215 Kbps
Width : 1 920 pixels
Height : 1 080 pixels
Display aspect ratio : 16:9
Frame rate mode : Constant
Frame rate : 29.970 fps
Color space : YUV
Chroma subsampling : 4:2:0
Bit depth : 8 bits
Scan type : Progressive
Bits/(Pixel*Frame) : 0.100
Stream size : 7.22 GiB (79%)
Writing library : x264 core 142
Encoding settings : cabac=1 / ref=1 / deblock=1:-1:-1 / analyse=0x3:0 / me=hex / subme=5 / psy=0 / mixed_ref=0 / me_range=16 / chroma_me=1 / trellis=0 / 8x8dct=1 / cqm=0 / deadzone=21,11 / fast_pskip=1 / chroma_qp_offset=0 / threads=8 / lookahead_threads=2 / sliced_threads=0 / nr=0 / decimate=1 / interlaced=0 / bluray_compat=0 / constrained_intra=0 / bframes=2 / b_pyramid=0 / b_adapt=1 / b_bias=0 / direct=1 / weightb=1 / open_gop=0 / weightp=0 / keyint=24 / keyint_min=13 / scenecut=40 / intra_refresh=0 / rc=abr / mbtree=0 / bitrate=6215 / ratetol=1.0 / qcomp=0.60 / qpmin=0 / qpmax=69 / qpstep=4 / ip_ratio=1.40 / pb_ratio=1.30 / aq=1:1.00
Default : Yes
Forced : No
Color primaries : BT.709
Transfer characteristics : BT.709
Matrix coefficients : BT.709
Color range : Limited

Audio
ID : 2
Format : DTS
Format/Info : Digital Theater Systems
Mode : 16
Format settings, Endianness : Big
Codec ID : A_DTS
Duration : 2h 49mn
Bit rate mode : Constant
Bit rate : 1 509 Kbps
Channel(s) : 6 channels
Channel positions : Front: L C R, Side: L R, LFE
Sampling rate : 48.0 KHz
Bit depth : 24 bits
Compression mode : Lossy
Stream size : 1.78 GiB (19%)
Language : Italian
Default : Yes
Forced : No

Text #1
ID : 3
Format : VobSub
Codec ID : S_VOBSUB
Codec ID/Info : The same subtitle format used on DVDs
Language : Italian
Default : Yes
Forced : No

Text #2
ID : 4
Format : VobSub
Codec ID : S_VOBSUB
Codec ID/Info : The same subtitle format used on DVDs
Language : English
Default : No
Forced : No

Text #3
ID : 5
Format : VobSub
Codec ID : S_VOBSUB
Codec ID/Info : The same subtitle format used on DVDs
Language : German
Default : No
Forced : No

Text #4
ID : 6
Format : VobSub
Codec ID : S_VOBSUB
Codec ID/Info : The same subtitle format used on DVDs
Language : French
Default : No
Forced : No

Text #5
ID : 7
Format : VobSub
Codec ID : S_VOBSUB
Codec ID/Info : The same subtitle format used on DVDs
Language : Spanish
Default : No
Forced : No

Text #6
ID : 8
Format : VobSub
Codec ID : S_VOBSUB
Codec ID/Info : The same subtitle format used on DVDs
Language : Japanese
Default : No
Forced : No

Text #7
ID : 9
Format : VobSub
Codec ID : S_VOBSUB
Codec ID/Info : The same subtitle format used on DVDs
Language : Korean
Default : No
Forced : No

Menu
00:00:00.000 : en:Chapter 01
00:00:31.231 : en:Chapter 02
00:07:55.308 : en:Chapter 03
00:12:02.722 : en:Chapter 04
00:16:00.859 : en:Chapter 05
00:17:11.263 : en:Chapter 06
00:19:06.945 : en:Chapter 07
00:20:12.978 : en:Chapter 08
00:25:28.260 : en:Chapter 09
00:27:59.511 : en:Chapter 10
00:30:02.901 : en:Chapter 11
00:32:56.908 : en:Chapter 12
00:36:19.110 : en:Chapter 13
00:37:27.044 : en:Chapter 14
00:45:30.894 : en:Chapter 15
00:46:47.638 : en:Chapter 16
00:52:25.075 : en:Chapter 17
00:53:50.193 : en:Chapter 18
00:57:17.033 : en:Chapter 19
01:02:16.866 : en:Chapter 20
01:05:33.729 : en:Chapter 21
01:10:44.540 : en:Chapter 22
01:12:45.928 : en:Chapter 23
01:19:22.924 : en:Chapter 24
01:20:44.906 : en:Chapter 25
01:29:28.229 : en:Chapter 26
01:33:22.964 : en:Chapter 27
01:36:20.407 : en:Chapter 28
01:41:57.077 : en:Chapter 29
01:43:26.433 : en:Chapter 30
01:46:32.686 : en:Chapter 31
01:50:28.955 : en:Chapter 32
01:56:00.787 : en:Chapter 33
01:56:49.335 : en:Chapter 34
01:57:55.334 : en:Chapter 35
02:01:34.520 : en:Chapter 36
02:05:46.739 : en:Chapter 37
02:07:35.848 : en:Chapter 38
02:12:04.917 : en:Chapter 39
02:13:21.126 : en:Chapter 40
02:16:52.971 : en:Chapter 41
02:19:30.729 : en:Chapter 42
02:22:39.050 : en:Chapter 43
02:24:21.052 : en:Chapter 44
02:29:13.511 : en:Chapter 45
02:30:43.734 : en:Chapter 46
02:33:47.585 : en:Chapter 47
02:42:12.022 : en:Chapter 48
02:42:49.159 : en:Chapter 49
02:45:21.544 : en:Chapter 50

All screenshots taken from BDRip

Andrea Battistoni, Orchestra e Coro del Teatro Regio di Parma - Rossini: Il Barbiere di Siviglia (2012) [Blu-Ray]