Subcategories

Roxy Music - Roxy Music (1972) [2015, Universal Music Japan, UICY-40122]

Posted By: v3122
Roxy Music - Roxy Music (1972) [2015, Universal Music Japan, UICY-40122]

Roxy Music - Roxy Music (1972)
EAC | Flac(Image) + Cue + Log & MP3 CBR 320Kbps
Universal Music Japan, UICY-40122 | ~ 258 or 117 Mb | Scans(png) -> 234 Mb
Art Rock / Experimental / Glam

Falling halfway between musical primitivism and art rock ambition, Roxy Music's eponymous debut remains a startling redefinition of rock's boundaries. Simultaneously embracing kitschy glamour and avant-pop, Roxy Music shimmers with seductive style and pulsates with disturbing synthetic textures. Although no musician demonstrates much technical skill at this point, they are driven by boundless imagination – Brian Eno's synthesized "treatments" exploit electronic instruments as electronics, instead of trying to shoehorn them into conventional acoustic patterns. Similarly, Bryan Ferry finds that his vampiric croon is at its most effective when it twists conventional melodies, Phil Manzanera's guitar is terse and unpredictable, while Andy Mackay's saxophone subverts rock & roll clichés by alternating R&B honking with atonal flourishes. But what makes Roxy Music such a confident, astonishing debut is how these primitive avant-garde tendencies are married to full-fledged songs, whether it's the free-form, structure-bending "Remake/Remodel" or the sleek glam of "Virginia Plain," the debut single added to later editions of the album. That was the trick that elevated Roxy Music from an art school project to the most adventurous rock band of the early '70s.

by Stephen Thomas Erlewine, AMG
Roxy Music - Roxy Music (1972):

Roxy Music - Roxy Music (1972) [2015, Universal Music Japan, UICY-40122]

Tracklist:

01. Re-Make / Re-Model
02. Ladytron
03. If There Is Something
04. 2 H.B.
05. The Bob (Medley)
06. Chance Meeting
07. Would You Believe?
08. Sea Breezes
09. Bitters End

Exact Audio Copy V1.0 beta 4 from 7. December 2014

EAC extraction logfile from 14. February 2015, 18:53

Roxy Music / Roxy Music PT-SHM

Used drive : PLEXTOR BD-R PX-B950SA Adapter: 1 ID: 1

Read mode : Secure
Utilize accurate stream : Yes
Defeat audio cache : Yes
Make use of C2 pointers : No

Read offset correction : 6
Overread into Lead-In and Lead-Out : No
Fill up missing offset samples with silence : Yes
Delete leading and trailing silent blocks : No
Null samples used in CRC calculations : Yes
Used interface : Native Win32 interface for Win NT & 2000

Used output format : Internal WAV Routines
Sample format : 44.100 Hz; 16 Bit; Stereo


TOC of the extracted CD

Track | Start | Length | Start sector | End sector
––––––––––––––––––––––––––––-
1 | 0:00.00 | 5:15.22 | 0 | 23646
2 | 5:15.22 | 4:27.00 | 23647 | 43671
3 | 9:42.22 | 6:36.35 | 43672 | 73406
4 | 16:18.57 | 4:37.23 | 73407 | 94204
5 | 20:56.05 | 5:48.70 | 94205 | 120374
6 | 26:45.00 | 3:08.52 | 120375 | 134526
7 | 29:53.52 | 3:54.50 | 134527 | 152126
8 | 33:48.27 | 7:04.55 | 152127 | 183981
9 | 40:53.07 | 2:05.38 | 183982 | 193394


Range status and errors

Selected range

Filename C:\Users\Meijin\Desktop\ALLexxess\Roxy Music\1972 Roxy Music (Mini LP PT-SHM Universal Japan 2015)\Roxy Music - Roxy Music PT-SHM.wav

Peak level 98.8 %
Extraction speed 6.7 X
Range quality 100.0 %
Test CRC 810E7ECC
Copy CRC 810E7ECC
Copy OK

No errors occurred


AccurateRip summary

Track 1 not present in database
Track 2 not present in database
Track 3 not present in database
Track 4 not present in database
Track 5 not present in database
Track 6 not present in database
Track 7 not present in database
Track 8 not present in database
Track 9 not present in database

None of the tracks are present in the AccurateRip database

End of status report

–– CUETools DB Plugin V2.1.4

[CTDB TOCID: CiNZ4TzajmYLAsKwWfXmBTy9IBQ-] disk not present in database
Submit result: CiNZ4TzajmYLAsKwWfXmBTy9IBQ- has been uploaded


==== Log checksum 359D37777FC5D66000B6631650954CC9F0B8DE44F13B8A65A6182FA14CFD4349 ====

foobar2000 1.2.9 / Dynamic Range Meter 1.1.1
log date: 2015-02-20 19:12:08

––––––––––––––––––––––––––––––––––––––––
Analyzed: Roxy Music / Roxy Music PT-SHM
––––––––––––––––––––––––––––––––––––––––

DR Peak RMS Duration Track
––––––––––––––––––––––––––––––––––––––––
DR12 -0.10 dB -14.26 dB 5:15 01-Re-Make / Re-Model
DR11 -1.08 dB -16.03 dB 4:27 02-Ladytron
DR12 -0.97 dB -16.21 dB 6:36 03-If There Is Something
DR13 -1.57 dB -17.60 dB 4:37 04-2 H.B.
DR13 -0.68 dB -18.88 dB 5:49 05-The Bob (Medley)
DR13 -3.40 dB -19.63 dB 3:09 06-Chance Meeting
DR12 -1.34 dB -16.29 dB 3:55 07-Would You Believe?
DR14 -0.85 dB -21.07 dB 7:05 08-Sea Breezes
DR14 -3.35 dB -21.18 dB 2:06 09-Bitters End
––––––––––––––––––––––––––––––––––––––––

Number of tracks: 9
Official DR value: DR13

Samplerate: 44100 Hz
Channels: 2
Bits per sample: 16
Bitrate: 731 kbps
Codec: FLAC

[CUETools log; Date: 20.02.2015 19:13:03; Version: 2.1.4]
[CTDB TOCID: CiNZ4TzajmYLAsKwWfXmBTy9IBQ-] found.
Track | CTDB Status
1 | (1/1) Accurately ripped
2 | (1/1) Accurately ripped
3 | (1/1) Accurately ripped
4 | (1/1) Accurately ripped
5 | (1/1) Accurately ripped
6 | (1/1) Accurately ripped
7 | (1/1) Accurately ripped
8 | (1/1) Accurately ripped
9 | (1/1) Accurately ripped
[AccurateRip ID: 000f8dc9-00711fcb-780a1209] disk not present in database.

Track Peak [ CRC32 ] [W/O NULL] [ LOG ]
– 98,8 [810E7ECC] [71D12A07] CRC32
01 98,8 [CD33C79C] [DCDD74D5]
02 88,3 [6690B83E] [4F6E5125]
03 89,4 [D8F3579D] [CA86121E]
04 83,4 [24BD33DD] [BBBA770C]
05 92,4 [FBCBA224] [145F8859]
06 67,5 [D3D74A8A] [027C1B02]
07 85,6 [3AF78E43] [784998E1]
08 90,6 [D64FDD6E] [4A537C16]
09 67,9 [5F725201] [A3FE19A8]

Roxy Music - Roxy Music (1972) [2015, Universal Music Japan, UICY-40122]

All thanks go to ALLexxess

Download Roxy Music - Roxy Music (1972):