Subcategories
Tags
Language
Tags

Roy Orbison With The Royal Philharmonic Orchestra - A Love So Beautiful (2017) {Japanese Edition}

Posted By: popsakov
Roy Orbison With The Royal Philharmonic Orchestra - A Love So Beautiful (2017) {Japanese Edition}

Roy Orbison With The Royal Philharmonic Orchestra - A Love So Beautiful (2017) {Japanese Edition}
EAC Rip | FLAC (Img) + Cue + Log ~ 370 Mb | MP3 CBR320 ~ 132 Mb
Full Scans ~ 103 Mb | 00:54:13 | RAR 5% Recovery
Pop Rock, Rock & Roll, Rockabilly | Sony Music Labels Inc. #SICP-5623

A Love So Beautiful: Roy Orbison & The Royal Philharmonic Orchestra, produced by Don Reedman and Nick Patrick, features elegant and spirited arrangements of Roy's best original vocal performances with the emotion and world-class musicianship of London s most beloved orchestra, The Royal Philharmonic Orchestra. A Love So Beautiful includes the timeless Roy tracks "Oh, Pretty Woman", "You Got It", "Crying" and more while breathing new life into fan favorites such as "Drove All Night" and the title track "A Love So Beautiful". Additionally, the album will feature instrumental backing from "Roy's boys": his three sons Wesley, Roy Jr. and Alex; plus Roy's grandson Roy Orbison III.

***************

Roy Orbison With The Royal Philharmonic Orchestra - A Love So Beautiful (2017) {Japanese Edition}

Track List:

01. In Dreams [0:03:47.39]
02. Crying [0:03:00.16]
03. I'm Hurtin' [0:02:47.48]
04. Oh, Pretty Woman [0:03:08.71]
05. It's Over [0:03:19.17]
06. Dream Baby [0:02:54.24]
07. Blue Angel [0:02:58.45]
08. Love Hurts [0:02:40.54]
09. Uptown [0:02:17.22]
10. Mean Woman Blues [0:02:26.13]
11. Only The Lonely (Know The Way I Feel) [0:02:32.20]
12. Running Scared [0:02:48.70]
13. I Drove All Night [0:04:15.63]
14. You Got It [0:03:36.27]
15. A Love So Beautiful [0:04:12.42]
16. Pretty Paper [0:03:23.32]
17. Roy Orbison & The Royal Philharmonic Orchestra Feat. Ward Thomas / I Drove All Night [0:04:03.33]

Exact Audio Copy V1.3 from 2. September 2016

Отчёт EAC об извлечении, выполненном 19. декабря 2018, 17:20

Roy Orbison & The Royal Philharmonic Orchestra / A Love So Beautiful

Дисковод: PLEXTOR DVDR PX-755A Adapter: 1 ID: 0

Режим чтения : Достоверность
Использование точного потока : Да
Отключение кэша аудио : Да
Использование указателей C2 : Нет

Коррекция смещения при чтении : 30
Способность читать области Lead-in и Lead-out : Нет
Заполнение пропущенных сэмплов тишиной : Да
Удаление блоков с тишиной в начале и конце : Нет
При вычислениях CRC использовались нулевые сэмплы : Да
Интерфейс : Встроенный Win32-интерфейс для Win NT/2000

Выходной формат : Пользовательский кодировщик
Выбранный битрейт : 1024 kBit/s
Качество : Высокий
Добавление ID3-тега : Нет
Утилита сжатия : C:\Program Files (x86)\Exact Audio Copy\FLAC\FLAC.EXE
Дополнительные параметры : -6 -V -T "ARTIST=%artist%" -T "TITLE=%title%" -T "ALBUM=%albumtitle%" -T "DATE=%year%" -T "TRACKNUMBER=%tracknr%" -T "GENRE=%genre%" -T "COMMENT=%comment%" -T "BAND=%albuminterpret%" -T "ALBUMARTIST=%albuminterpret%" -T "COMPOSER=%composer%" %haslyrics%–tag-from-file=LYRICS="%lyricsfile%"%haslyrics% -T "DISCNUMBER=%cdnumber%" -T "TOTALDISCS=%totalcds%" -T "TOTALTRACKS=%numtracks%" %hascover%–picture="%coverfile%"%hascover% %source% -o %dest%


TOC извлечённого CD

Трек | Старт | Длительность | Начальный сектор | Конечный сектор
––––––––––––––––––––––––––––––––––-
1 | 0:00.00 | 3:47.39 | 0 | 17063
2 | 3:47.39 | 3:00.16 | 17064 | 30579
3 | 6:47.55 | 2:47.48 | 30580 | 43152
4 | 9:35.28 | 3:08.71 | 43153 | 57323
5 | 12:44.24 | 3:19.17 | 57324 | 72265
6 | 16:03.41 | 2:54.24 | 72266 | 85339
7 | 18:57.65 | 2:58.45 | 85340 | 98734
8 | 21:56.35 | 2:40.54 | 98735 | 110788
9 | 24:37.14 | 2:17.22 | 110789 | 121085
10 | 26:54.36 | 2:26.13 | 121086 | 132048
11 | 29:20.49 | 2:32.20 | 132049 | 143468
12 | 31:52.69 | 2:48.70 | 143469 | 156138
13 | 34:41.64 | 4:15.63 | 156139 | 175326
14 | 38:57.52 | 3:36.27 | 175327 | 191553
15 | 42:34.04 | 4:12.42 | 191554 | 210495
16 | 46:46.46 | 3:23.32 | 210496 | 225752
17 | 50:10.03 | 4:03.33 | 225753 | 244010


Характеристики диапазона извлечения и сообщения об ошибках

Выбранный диапазон

Имя файла E:\РАЗДАЧА\Roy Orbison - A Love So Beautiful [2017 Japan]\Roy Orbison & The Royal Philharmonic Orchestra - A Love So Beautiful.wav

Пиковый уровень 100.0 %
Скорость извлечения 8.0 X
Качество диапазона 100.0 %
CRC теста 2F991459
CRC копии 2F991459
Копирование… OK

Ошибок не произошло


AccurateRip: сводка

Трек 1 : извлечено точно (доверие 28) [ABE146EE] (AR v2)
Трек 2 : извлечено точно (доверие 28) [B0BE3363] (AR v2)
Трек 3 : извлечено точно (доверие 29) [1953134C] (AR v2)
Трек 4 : извлечено точно (доверие 28) [9279298E] (AR v2)
Трек 5 : извлечено точно (доверие 29) [8E828D04] (AR v2)
Трек 6 : извлечено точно (доверие 29) [2D75CA2C] (AR v2)
Трек 7 : извлечено точно (доверие 29) [F90D2D14] (AR v2)
Трек 8 : извлечено точно (доверие 29) [E51823C6] (AR v2)
Трек 9 : извлечено точно (доверие 29) [6929964D] (AR v2)
Трек 10 : извлечено точно (доверие 29) [AFFA222B] (AR v2)
Трек 11 : извлечено точно (доверие 29) [F6F5A7B9] (AR v2)
Трек 12 : извлечено точно (доверие 29) [067CDF7A] (AR v2)
Трек 13 : извлечено точно (доверие 29) [7A1EAB67] (AR v2)
Трек 14 : извлечено точно (доверие 29) [E423B328] (AR v2)
Трек 15 : извлечено точно (доверие 30) [F054A13F] (AR v2)
Трек 16 : извлечено точно (доверие 29) [523E8E8D] (AR v2)
Трек 17 : извлечено точно (доверие 29) [6AD63EA3] (AR v2)

Все треки извлечены точно

Конец отчёта

==== Контрольная сумма отчёта 7DF16AAE2B0697266F57E86EF4D9540FAF12A2CA62B9FC02E52C80ACC1ACE2DC ====

[CUETools log; Date: 20.12.2018 1:32:24; Version: 2.1.6]
[CTDB TOCID: jvb5yZ66RnIPQc8pFtwG59Iir7U-] found.
Track | CTDB Status
1 | (164/165) Accurately ripped
2 | (165/165) Accurately ripped
3 | (165/165) Accurately ripped
4 | (165/165) Accurately ripped
5 | (165/165) Accurately ripped
6 | (165/165) Accurately ripped
7 | (165/165) Accurately ripped
8 | (165/165) Accurately ripped
9 | (165/165) Accurately ripped
10 | (165/165) Accurately ripped
11 | (165/165) Accurately ripped
12 | (165/165) Accurately ripped
13 | (165/165) Accurately ripped
14 | (165/165) Accurately ripped
15 | (165/165) Accurately ripped
16 | (165/165) Accurately ripped
17 | (165/165) Accurately ripped
[AccurateRip ID: 0020463f-019813a3-fb0cb511] found.
Track [ CRC | V2 ] Status
01 [59b2ff62|abe146ee] (00+28/35) Accurately ripped
02 [11adac2b|b0be3363] (00+28/35) Accurately ripped
03 [84289c8f|1953134c] (00+29/36) Accurately ripped
04 [3abc6a9d|9279298e] (00+28/35) Accurately ripped
05 [9db5762c|8e828d04] (00+29/36) Accurately ripped
06 [622b08af|2d75ca2c] (00+29/36) Accurately ripped
07 [fc6d258c|f90d2d14] (00+29/36) Accurately ripped
08 [8a15f2d9|e51823c6] (00+29/36) Accurately ripped
09 [9b4ec93f|6929964d] (00+29/36) Accurately ripped
10 [55859412|affa222b] (00+29/36) Accurately ripped
11 [7e177f23|f6f5a7b9] (00+29/36) Accurately ripped
12 [d44194aa|067cdf7a] (00+29/36) Accurately ripped
13 [debf7582|7a1eab67] (00+29/36) Accurately ripped
14 [108747e4|e423b328] (00+29/36) Accurately ripped
15 [18828ec6|f054a13f] (00+30/37) Accurately ripped
16 [aa10015b|523e8e8d] (00+29/36) Accurately ripped
17 [c839a3f5|6ad63ea3] (00+29/36) Accurately ripped
Offsetted by -12:
01 [61a8e552] (00/35) No match (V2 was not tested)
02 [48be2ed9] (00/35) No match (V2 was not tested)
03 [f00e056b] (00/36) No match (V2 was not tested)
04 [8d21fd67] (00/35) No match (V2 was not tested)
05 [e07b6483] (00/36) No match (V2 was not tested)
06 [c3f8897f] (00/36) No match (V2 was not tested)
07 [f7422581] (00/36) No match (V2 was not tested)
08 [c9787c01] (00/36) No match (V2 was not tested)
09 [5d571adc] (00/36) No match (V2 was not tested)
10 [6b77ce09] (00/36) No match (V2 was not tested)
11 [e6f1fa04] (00/36) No match (V2 was not tested)
12 [19c4f341] (00/36) No match (V2 was not tested)
13 [55e0ce54] (00/36) No match (V2 was not tested)
14 [d3d7fe6f] (00/36) No match (V2 was not tested)
15 [2756c71b] (00/37) No match (V2 was not tested)
16 [7ccc90a0] (00/36) No match (V2 was not tested)
17 [0949e619] (00/36) No match (V2 was not tested)

Track Peak [ CRC32 ] [W/O NULL] [ LOG ]
– 100,0 [2F991459] [615BB603] CRC32
01 98,4 [06B7DA50] [21F8C1ED]
02 98,8 [9E7F20FC] [DE30A2A0]
03 99,0 [DC5EF2A8] [0C7462DD]
04 98,6 [D3A54039] [DC75E9FB]
05 98,5 [04B1DFF4] [1669FCEC]
06 99,6 [C9834E21] [0947804A]
07 99,4 [FE3A8D08] [85D3EE6B]
08 98,2 [4CA6BE68] [112BBC5A]
09 99,7 [FE6025E2] [80E497BA]
10 99,6 [F1BC6298] [ED74E02A]
11 98,7 [358AA68D] [33DA6954]
12 98,5 [0FE5D830] [23474BE5]
13 99,7 [A42303C2] [ABFE16E8]
14 100,0 [41D9B8C9] [C419AFC7]
15 99,3 [2FA96295] [7BDA5652]
16 98,2 [1680C070] [7A49A738]
17 98,6 [E7D0C977] [8195BD60]

Roy Orbison With The Royal Philharmonic Orchestra - A Love So Beautiful (2017) {Japanese Edition}


All thanks go to pishin

>>> Roy Orbison in my Blog <<<

DOWNLOAD: