Subcategories

Roy Orbison - Black & White Night (1989) {1999, Remastered}

Posted By: popsakov
Roy Orbison - Black & White Night (1989) {1999, Remastered}

Roy Orbison - Black & White Night (1989) {1999, Remastered}
EAC Rip | FLAC (Img) + Cue + Log ~ 438 Mb | MP3 CBR320 ~ 149 Mb
Full Scans (PNG, 400 dpi) ~ 120 Mb | RAR 5% Recovery
Rockabilly, Rock & Roll, Pop Rock, Classic Rock | Orbison Records / Legacy #82876 78150 2

The best-recorded Roy Orbison live disc ever issued, taken from the soundtrack of the HBO concert from the 1980s with VIP guests like Bruce Springsteen and Elvis Costello. This was a sort of magical video, and the performances are splendid, along with the good feelings involved. On the other hand, the performances are extremely reverential to the established studio versions of the songs (all of the hits are here), and intended to mimic them, so this isn't quite the same as a live album as it would have been done back when. The pity is that neither Monument nor MGM ever taped any complete concerts by Orbison from the 1960s, and all that remains are TV appearances from Europe.
~ Bruce Eder, All Music
Roy Orbison - Black & White Night (1989) {1999, Remastered}


***************

Roy Orbison - Black & White Night (1989) {1999, Remastered}

Roy Orbison - Black & White Night (1989) {1999, Remastered}

Track List:

01. Only The Lonely [3:00]
02. Dream Baby (How Long Must I Dream) [3:57]
03. Blue Bayou [3:17]
04. The Comedians [3:30]
05. Ooby Dooby [4:08]
06. Leah [3:07]
07. Running Scared [2:31]
08. Uptown [3:23]
09. In Dreams [3:16]
10. Crying [3:15]
11. Candy Man [3:33]
12. Go, Go, Go (Down The Line) [5:28]
13. Mean Woman Blues [3:00]
14. (All I Can Do Is) Dream You [3:37]
15. Claudette [3:01]
16. It's Over [3:09]
17. Oh, Pretty Woman [6:36]

Exact Audio Copy V1.0 beta 3 from 29. August 2011

EAC extraction logfile from 25. January 2018, 13:29

Roy Orbison / Black And White Night (Live with Friends)

Used drive : PIONEER BD-RW BDR-TD03 Adapter: 0 ID: 1

Read mode : Secure
Utilize accurate stream : Yes
Defeat audio cache : Yes
Make use of C2 pointers : No

Read offset correction : 667
Overread into Lead-In and Lead-Out : No
Fill up missing offset samples with silence : Yes
Delete leading and trailing silent blocks : No
Null samples used in CRC calculations : Yes
Used interface : Native Win32 interface for Win NT & 2000

Used output format : User Defined Encoder
Selected bitrate : 768 kBit/s
Quality : High
Add ID3 tag : No
Command line compressor : C:\Program Files (x86)\Exact Audio Copy\FLAC\FLAC.EXE
Additional command line options : -6 -V -T "ARTIST=%artist%" -T "TITLE=%title%" -T "ALBUM=%albumtitle%" -T "DATE=%year%" -T "TRACKNUMBER=%tracknr%" -T "GENRE=%genre%" -T "COMMENT=%comment%" -T "BAND=%albuminterpret%" -T "ALBUMARTIST=%albuminterpret%" -T "COMPOSER=%composer%" %haslyrics%–tag-from-file=LYRICS="%lyricsfile%"%haslyrics% -T "DISCNUMBER=%cdnumber%" -T "TOTALDISCS=%totalcds%" -T "TOTALTRACKS=%numtracks%" %hascover%–picture="%coverfile%"%hascover% %source% -o %dest%


TOC of the extracted CD

Track | Start | Length | Start sector | End sector
––––––––––––––––––––––––––––-
1 | 0:00.00 | 2:59.65 | 0 | 13489
2 | 2:59.65 | 3:57.32 | 13490 | 31296
3 | 6:57.22 | 3:16.45 | 31297 | 46041
4 | 10:13.67 | 3:30.20 | 46042 | 61811
5 | 13:44.12 | 4:08.23 | 61812 | 80434
6 | 17:52.35 | 3:07.37 | 80435 | 94496
7 | 20:59.72 | 2:30.45 | 94497 | 105791
8 | 23:30.42 | 3:22.38 | 105792 | 120979
9 | 26:53.05 | 3:16.17 | 120980 | 135696
10 | 30:09.22 | 3:14.40 | 135697 | 150286
11 | 33:23.62 | 3:32.63 | 150287 | 166249
12 | 36:56.50 | 5:28.35 | 166250 | 190884
13 | 42:25.10 | 3:00.25 | 190885 | 204409
14 | 45:25.35 | 3:36.52 | 204410 | 220661
15 | 49:02.12 | 3:01.25 | 220662 | 234261
16 | 52:03.37 | 3:09.03 | 234262 | 248439
17 | 55:12.40 | 6:35.55 | 248440 | 278119


Range status and errors

Selected range

Filename C:\Users\Deris\Desktop\roorNight\Roy Orbison - Black And White Night (Live with Friends).wav

Peak level 99.8 %
Extraction speed 4.8 X
Range quality 100.0 %
Test CRC 63B62E59
Copy CRC 63B62E59
Copy OK

No errors occurred


AccurateRip summary

Track 1 accurately ripped (confidence 37) [49563EC0] (AR v2)
Track 2 accurately ripped (confidence 39) [526FB7C8] (AR v2)
Track 3 accurately ripped (confidence 39) [2B6F7C85] (AR v2)
Track 4 accurately ripped (confidence 40) [7FDC6FF9] (AR v2)
Track 5 accurately ripped (confidence 41) [227E50F7] (AR v2)
Track 6 accurately ripped (confidence 40) [E7D97035] (AR v2)
Track 7 accurately ripped (confidence 40) [727738D1] (AR v2)
Track 8 accurately ripped (confidence 38) [CCDFD5AB] (AR v2)
Track 9 accurately ripped (confidence 39) [DE346564] (AR v2)
Track 10 accurately ripped (confidence 39) [1B50E920] (AR v2)
Track 11 accurately ripped (confidence 40) [286F201C] (AR v2)
Track 12 accurately ripped (confidence 39) [30E7EDC2] (AR v2)
Track 13 accurately ripped (confidence 40) [E032C1AD] (AR v2)
Track 14 accurately ripped (confidence 39) [5546E8C0] (AR v2)
Track 15 accurately ripped (confidence 40) [2428334E] (AR v2)
Track 16 accurately ripped (confidence 38) [C4C0F1B9] (AR v2)
Track 17 accurately ripped (confidence 36) [8F8C6C94] (AR v2)

All tracks accurately ripped

End of status report

–– CUETools DB Plugin V2.1.3

[CTDB TOCID: ChrtJY5hB_iZ5i_WGItI_lrs6po-] found, Submit result: ChrtJY5hB_iZ5i_WGItI_lrs6po- has been confirmed
[5b1cbc1f] (134/139) Accurately ripped
[2edf2a1a] (001/139) No match
[66c6556a] (001/139) No match
[a7e8bbf4] (001/139) No match
[bd5268a5] (001/139) No match
[f9b1c2d3] (001/139) No match


==== Log checksum B0CC71A582767776B5038F948CC8B92F36AEA57EE0ED506B6E0C65D933D3B04C ====

foobar2000 1.3.16 / Dynamic Range Meter 1.1.1
log date: 2018-01-27 10:45:29

––––––––––––––––––––––––––––––––––––––––
Analyzed: Roy Orbison / Black And White Night (Live with Friends)
––––––––––––––––––––––––––––––––––––––––

DR Peak RMS Duration Track
––––––––––––––––––––––––––––––––––––––––
DR14 -0.01 dB -15.43 dB 3:00 01-Only The Lonely
DR11 -0.01 dB -12.80 dB 3:57 02-Dream Baby (How Long Must I Dream)
DR12 -0.01 dB -13.90 dB 3:17 03-Blue Bayou
DR12 -0.63 dB -16.57 dB 3:30 04-The Comedians
DR13 -0.01 dB -14.57 dB 4:08 05-Ooby Dooby
DR12 -0.01 dB -13.83 dB 3:07 06-Leah
DR11 -0.01 dB -14.44 dB 2:31 07-Running Scared
DR9 -0.01 dB -10.78 dB 3:23 08-Uptown
DR11 -0.01 dB -13.51 dB 3:16 09-In Dreams
DR8 -0.01 dB -11.30 dB 3:15 10-Crying
DR11 -0.01 dB -12.39 dB 3:33 11-Candy Man
DR12 -0.01 dB -13.85 dB 5:28 12-Go, Go, Go (Down The Line)
DR11 -0.01 dB -12.90 dB 3:00 13-Mean Woman Blues
DR11 -0.01 dB -12.80 dB 3:37 14-(All I Can Do Is) Dream You
DR12 -0.01 dB -13.18 dB 3:01 15-Claudette
DR11 -0.01 dB -13.20 dB 3:09 16-It's Over
DR8 -0.01 dB -10.17 dB 6:36 17-Oh, Pretty Woman
––––––––––––––––––––––––––––––––––––––––

Number of tracks: 17
Official DR value: DR11

Samplerate: 44100 Hz
Channels: 2
Bits per sample: 16
Bitrate: 943 kbps
Codec: FLAC
================================================================================

[CUETools log; Date: 27.01.2018 10:45:01; Version: 2.1.5]
[CTDB TOCID: ChrtJY5hB_iZ5i_WGItI_lrs6po-] found.
Track | CTDB Status
1 | (137/140) Accurately ripped
2 | (137/140) Accurately ripped
3 | (137/140) Accurately ripped
4 | (137/140) Accurately ripped
5 | (137/140) Accurately ripped
6 | (137/140) Accurately ripped
7 | (137/140) Accurately ripped
8 | (137/140) Accurately ripped
9 | (137/140) Accurately ripped
10 | (137/140) Accurately ripped
11 | (137/140) Accurately ripped
12 | (137/140) Accurately ripped
13 | (136/140) Accurately ripped
14 | (137/140) Accurately ripped
15 | (137/140) Accurately ripped
16 | (137/140) Accurately ripped
17 | (136/140) Accurately ripped
[AccurateRip ID: 00245dfe-01ceca87-cd0e7c11] found.
Track [ CRC | V2 ] Status
01 [19c48f53|49563ec0] (028+037/123) Accurately ripped
02 [cff67459|526fb7c8] (027+039/123) Accurately ripped
03 [34bbb849|2b6f7c85] (028+039/124) Accurately ripped
04 [319bd0e9|7fdc6ff9] (028+040/126) Accurately ripped
05 [d138906e|227e50f7] (027+041/125) Accurately ripped
06 [ba37fdaf|e7d97035] (028+040/125) Accurately ripped
07 [64214227|727738d1] (028+040/126) Accurately ripped
08 [29ddd4cc|ccdfd5ab] (028+038/123) Accurately ripped
09 [57832277|de346564] (028+039/124) Accurately ripped
10 [1b6d3552|1b50e920] (028+039/124) Accurately ripped
11 [17947e46|286f201c] (027+040/124) Accurately ripped
12 [82e8bf1d|30e7edc2] (028+039/124) Accurately ripped
13 [9d57ca5a|e032c1ad] (028+040/126) Accurately ripped
14 [dac9d6eb|5546e8c0] (028+039/123) Accurately ripped
15 [f37b5212|2428334e] (028+040/124) Accurately ripped
16 [90619ace|c4c0f1b9] (028+038/122) Accurately ripped
17 [3d87847b|8f8c6c94] (028+036/120) Accurately ripped
Offsetted by -12:
01 [af6449d7] (016/123) Accurately ripped
02 [8cef4b1f] (015/123) Accurately ripped
03 [048d57de] (015/124) Accurately ripped
04 [fda7d5f6] (016/126) Accurately ripped
05 [e117fc18] (015/125) Accurately ripped
06 [9b702727] (015/125) Accurately ripped
07 [a8b8a4d8] (016/126) Accurately ripped
08 [99bc7758] (015/123) Accurately ripped
09 [32883801] (015/124) Accurately ripped
10 [dc35fa8f] (015/124) Accurately ripped
11 [6299bbb8] (015/124) Accurately ripped
12 [f107df5b] (015/124) Accurately ripped
13 [16cfb708] (016/126) Accurately ripped
14 [0118eb6b] (014/123) Accurately ripped
15 [31a50561] (014/124) Accurately ripped
16 [94e5f33a] (014/122) Accurately ripped
17 [fed6a055] (014/120) Accurately ripped
Offsetted by 635:
01 [76fa7bb6] (000/123) No match (V2 was not tested)
02 [79cdf87c] (000/123) No match (V2 was not tested)
03 [a209ae43] (000/124) No match (V2 was not tested)
04 [7282f9a4] (000/126) No match (V2 was not tested)
05 [92526415] (000/125) No match (V2 was not tested)
06 [2ae334ee] (000/125) No match (V2 was not tested)
07 [ce06257f] (000/126) No match (V2 was not tested)
08 [45e355d1] (000/123) No match (V2 was not tested)
09 [7056304d] (000/124) No match (V2 was not tested)
10 [d9d2e025] (000/124) No match (V2 was not tested)
11 [d7e0bd93] (000/124) No match (V2 was not tested)
12 [fc35d2d6] (000/124) No match (V2 was not tested)
13 [b0e417c7] (000/126) No match (V2 was not tested)
14 [91e9468d] (000/123) No match (V2 was not tested)
15 [dbe0f19a] (000/124) No match (V2 was not tested)
16 [9914b789] (000/122) No match (V2 was not tested)
17 [e272dc20] (000/120) No match (V2 was not tested)
Offsetted by 646:
01 [5e84c9e7] (000/123) No match (V2 was not tested)
02 [0361acb2] (000/123) No match (V2 was not tested)
03 [8d315e8f] (000/124) No match (V2 was not tested)
04 [052f2ced] (000/126) No match (V2 was not tested)
05 [61fac4c4] (000/125) No match (V2 was not tested)
06 [bae84728] (000/125) No match (V2 was not tested)
07 [62554f3f] (000/126) No match (V2 was not tested)
08 [788aec01] (000/123) No match (V2 was not tested)
09 [07841911] (000/124) No match (V2 was not tested)
10 [0e214a03] (000/124) No match (V2 was not tested)
11 [31d0ed54] (000/124) No match (V2 was not tested)
12 [73d7af95] (000/124) No match (V2 was not tested)
13 [57c34184] (000/126) No match (V2 was not tested)
14 [12f5abb8] (000/123) No match (V2 was not tested)
15 [adda0202] (000/124) No match (V2 was not tested)
16 [a87d60ed] (000/122) No match (V2 was not tested)
17 [37bccf26] (000/120) No match (V2 was not tested)
Offsetted by 1281:
01 [c1138028] (000/123) No match (V2 was not tested)
02 [eb346df3] (000/123) No match (V2 was not tested)
03 [52db7277] (000/124) No match (V2 was not tested)
04 [4a2ff7da] (000/126) No match (V2 was not tested)
05 [bc1f4d0a] (000/125) No match (V2 was not tested)
06 [a8ed29d5] (000/125) No match (V2 was not tested)
07 [36af2f14] (000/126) No match (V2 was not tested)
08 [02cee378] (000/123) No match (V2 was not tested)
09 [359858ec] (000/124) No match (V2 was not tested)
10 [2a731632] (000/124) No match (V2 was not tested)
11 [1b27f0b8] (000/124) No match (V2 was not tested)
12 [be958e03] (000/124) No match (V2 was not tested)
13 [d2b88f5a] (000/126) No match (V2 was not tested)
14 [612f6bc6] (000/123) No match (V2 was not tested)
15 [62402c17] (000/124) No match (V2 was not tested)
16 [368a4596] (000/122) No match (V2 was not tested)
17 [36112967] (000/120) No match (V2 was not tested)

Track Peak [ CRC32 ] [W/O NULL] [ LOG ]
– 99,8 [63B62E59] [64A12E6F] CRC32
01 99,8 [E53535F0] [6A5DDF49]
02 99,8 [596BF6D3] [EF4B9CF2]
03 99,8 [9488EB35] [5F36A388]
04 92,9 [08D1BF9C] [E4B2FED7]
05 99,8 [3B2F0B51] [16E180A9]
06 99,8 [22FBBF3B] [03ACD764]
07 99,8 [4B006423] [694BE6B3]
08 99,8 [772D2ABE] [A0CAE41A]
09 99,8 [A699BC88] [74AF0AEB]
10 99,8 [3CA8F4DC] [ABF8E7A3]
11 99,8 [FE844C0E] [B15B4B83]
12 99,8 [D7B9BAA6] [7FF2F7DC]
13 99,8 [C4E7838B] [BD331822]
14 99,8 [9504BE59] [6D9FEB4F]
15 99,8 [54A55C20] [4136A03E]
16 99,8 [7804F920] [3311F1EB]
17 99,8 [CAAEFB8D] [58788E13]

Roy Orbison - Black & White Night (1989) {1999, Remastered}

All thanks go to Boris1

>>> Roy Orbison in my Blog <<<

Download from icerbox.com: