Subcategories

Edmund Rubbra - String Quartets Nos. 1, 3 and 4 (Maggini Quartet)

Posted By: siouxsie55
Edmund Rubbra - String Quartets Nos. 1, 3 and 4 (Maggini Quartet)

Edmund Rubbra - String Quartets Nos. 1, 3 and 4 (Maggini Quartet)
XX Century Classical | 1 CD's | EAC - Rip | Flac, IMG+CUE+LOG | Front and Back covers included | 246 MB | Filesonic
Publisher: Naxos

The Maggini Quartet’s Naxos recording of Edmund Rubbra’s String Quartet No. 2 (8.572286) was praised as ‘superbly integrated…undeniably a great success’ by Gramophone. His remaining three string quartets, heard here, mark Rubbra as a great, though still undervalued, English composer whose music boasts an inexhaustible sense of freshness, a richly hued emotional palette and an abiding sense of optimism. The Maggini Quartet’s Naxos recordings of English string quartets by composers from Alwyn to Walton have gained numerous awards, critical plaudits and nominations from Gramophone, Diapason and the Grammys.

Tracklist

String Quartet No. 1 in F minor, Op. 35 - I. Allegro moderato
II. Lento
III. Vivace (revised 1946 version)
String Quartet No. 3, Op. 112 - I. Largo ma molto flessibile – Allegretto
II. Adagio
III. Allegro leggiero
String Quartet No. 4, Op. 150 - I. Andante moderato, ma liberamente – Allegretto
II. Adagio e con molta espressione


Exact Audio Copy V1.0 beta 1 from 15. November 2010

EAC extraction logfile from 9. March 2011, 17:25

Rubbra, Edmund / String Quartets Nos. 1, 3 and 4

Used drive : TSSTcorpCDDVDW SH-S223C Adapter: 1 ID: 1

Read mode : Secure
Utilize accurate stream : Yes
Defeat audio cache : No
Make use of C2 pointers : Yes

Read offset correction : 697
Overread into Lead-In and Lead-Out : No
Fill up missing offset samples with silence : Yes
Delete leading and trailing silent blocks : No
Null samples used in CRC calculations : No
Used interface : Native Win32 interface for Win NT & 2000

Used output format : User Defined Encoder
Selected bitrate : 768 kBit/s
Quality : High
Add ID3 tag : No
Command line compressor : C:\Program Files (x86)\Exact Audio Copy\FLAC\FLAC.EXE
Additional command line options : -6 -V -T "ARTIST=%a" -T "TITLE=%t" -T "ALBUM=%g" -T "DATE=%y" -T "TRACKNUMBER=%n" -T "GENRE=%m" -T "COMMENT=%e" %j–picture="%i"%j %s -o %d


TOC of the extracted CD

Track | Start | Length | Start sector | End sector
––––––––––––––––––––––––––––-
1 | 0:00.00 | 7:16.01 | 0 | 32700
2 | 7:16.01 | 8:31.71 | 32701 | 71096
3 | 15:47.72 | 3:34.11 | 71097 | 87157
4 | 19:22.08 | 8:54.67 | 87158 | 127274
5 | 28:17.00 | 6:10.62 | 127275 | 155086
6 | 34:27.62 | 4:20.25 | 155087 | 174611
7 | 38:48.12 | 8:03.04 | 174612 | 210840
8 | 46:51.16 | 8:09.44 | 210841 | 247559


Range status and errors

Selected range

Filename F:\my music\Rubbra, Edmund - String Quartets Nos. 1, 3 and 4.wav

Peak level 98.4 %
Extraction speed 5.1 X
Range quality 99.9 %
Copy CRC EDA5E2FC
Copy OK

No errors occurred


AccurateRip summary

Track 1 not present in database
Track 2 not present in database
Track 3 not present in database
Track 4 not present in database
Track 5 not present in database
Track 6 not present in database
Track 7 not present in database
Track 8 not present in database

None of the tracks are present in the AccurateRip database

End of status report