Subcategories

Rubicon - America Dreams (1979) [Air Mail Archive AIRAC-1613, Japan]

Posted By: v3122
Rubicon - America Dreams (1979) [Air Mail Archive AIRAC-1613, Japan]

Rubicon - America Dreams (1979)
EAC | Flac(Image) + Cue + Log & MP3 CBR 320Kbps
2011 | Air Mail Archive AIRAC-1613 | ~ 234 or 104 Mb | Scans Included
Southern Rock / Funk / Classic Rock

Rubicon was a one-hit wonder funk rock band from California, who had a hit single in 1978 with "I'm Gonna Take Care of Everything". The song peaked at #28 on the Billboard magazine national singles charts, spending 11 weeks on the Hot 100.

Rubicon was formed in San Francisco by Jerry Martini, who was an original member of Sly & the Family Stone. Other members of the group included Greg Eckler (vocals, drums), Brad Gillis (guitar), Max Haskett (lead vocals, horns), Dennis Marcellino (sax, vocals), Jim Pugh (keyboards) and Jack Blades (bass). Their first album, the self-titled Rubicon, released in 1978, generated their only chart single. They released a second album in 1979, entitled America Dreams, before disbanding. Brad Gillis and Jack Blades went on to form Night Ranger, which would go on to great success in its own right.

Rubicon reformed in the early 90's as a progressive rock band with Greg Eckler (drums), Chuck Crenshaw (keyboards), J.P. Michaels (vocals, bass guitar), David Christians (vocals, lead guitar), and Randy Newhouse (acoustic guitar). This version of Rubicon produced one CD called Best of Rubicon and produced a single, "Whipping Boy," written by Michaels and Crenshaw, that was played on many radio stations nationally and gained recognition among independent critics.

~ wiki
Rubicon - America Dreams (1979) [Air Mail Archive AIRAC-1613, Japan]


Rubicon - America Dreams (1979):

Rubicon - America Dreams (1979) [Air Mail Archive AIRAC-1613, Japan]

Tracklist:

01. Love Is On The Run 03:57
02. Hungry For Your Love 03:13
03. Dr. Spears 03:08
04. Washington "73" 03:52
05. Let Yourself Go 03:25
06. Eyes Of Mary 04:39
07. Gimme Some Loving 03:39
08. Higher And Higher 03:44
09. Too Good To Take For Granted 03:10
10. America Dreams 05:20

Musicians:

Greg Eckler - Drums
Dennis Marcellino, Jerry Martini - Saxophone, Vocals
Jack Blades - Bass, Vocals
Jimmy Pugh - Keyboards, Vocals
Bradley Gillis - Guitar, Vocals
Max Haskett - Trumpet, Vocals


Exact Audio Copy V1.1 from 23. June 2015

EAC extraction logfile from 4. December 2015, 18:13

Rubicon / Rubicon

Used drive : TSSTcorpCDDVDW SH-224DB Adapter: 1 ID: 0

Read mode : Secure
Utilize accurate stream : Yes
Defeat audio cache : Yes
Make use of C2 pointers : No

Read offset correction : 6
Overread into Lead-In and Lead-Out : No
Fill up missing offset samples with silence : Yes
Delete leading and trailing silent blocks : No
Null samples used in CRC calculations : Yes
Used interface : Native Win32 interface for Win NT & 2000

Used output format : User Defined Encoder
Selected bitrate : 1024 kBit/s
Quality : High
Add ID3 tag : No
Command line compressor : C:\Program Files (x86)\Exact Audio Copy\win64\flac.exe
Additional command line options : -V -8 -T "Date=%year%" -T "Genre=%genre%" %source%


TOC of the extracted CD

Track | Start | Length | Start sector | End sector
––––––––––––––––––––––––––––-
1 | 0:00.00 | 3:18.30 | 0 | 14879
2 | 3:18.30 | 4:49.02 | 14880 | 36556
3 | 8:07.32 | 5:23.37 | 36557 | 60818
4 | 13:30.69 | 4:45.74 | 60819 | 82267
5 | 18:16.68 | 3:28.11 | 82268 | 97878
6 | 21:45.04 | 3:02.04 | 97879 | 111532
7 | 24:47.08 | 3:44.49 | 111533 | 128381
8 | 28:31.57 | 3:39.11 | 128382 | 144817
9 | 32:10.68 | 5:35.56 | 144818 | 169998


Range status and errors

Selected range

Filename C:\Sket4er\Rubicon - Rubicon (1978) 2011\Rubicon - Rubicon.wav

Peak level 98.0 %
Extraction speed 2.8 X
Range quality 100.0 %
Test CRC 2C1475B0
Copy CRC 2C1475B0
Copy OK

No errors occurred


AccurateRip summary

Track 1 cannot be verified as accurate (confidence 1) [3D7E7DC9], AccurateRip returned [275F0B77] (AR v2)
Track 2 cannot be verified as accurate (confidence 1) [AF465B69], AccurateRip returned [D68F22DE] (AR v2)
Track 3 cannot be verified as accurate (confidence 1) [C4D287D1], AccurateRip returned [8A17F4EB] (AR v2)
Track 4 cannot be verified as accurate (confidence 1) [15846392], AccurateRip returned [B233913B] (AR v2)
Track 5 cannot be verified as accurate (confidence 1) [D9653AC8], AccurateRip returned [AC7F6C20] (AR v2)
Track 6 cannot be verified as accurate (confidence 1) [999C5A96], AccurateRip returned [A1688F22] (AR v2)
Track 7 cannot be verified as accurate (confidence 1) [9D545C41], AccurateRip returned [BE0B1C37] (AR v2)
Track 8 cannot be verified as accurate (confidence 1) [13FD40D5], AccurateRip returned [E08EE65F] (AR v2)
Track 9 cannot be verified as accurate (confidence 1) [F29ED5DC], AccurateRip returned [78BDCBFF] (AR v2)

No tracks could be verified as accurate
You may have a different pressing from the one(s) in the database

End of status report

–– CUETools DB Plugin V2.1.6

[CTDB TOCID: ewclglMfMhjhLOQcGFwTXz841iQ-] disk not present in database
Submit result: ewclglMfMhjhLOQcGFwTXz841iQ- has been uploaded


==== Log checksum 748DCABB6AD40AD03856CE9B9AA28E772E1D8AC1FBE3474AA4FFD8A81A2B807E ====

foobar2000 1.2.9 / Dynamic Range Meter 1.1.1
log date: 2015-12-06 22:13:28

––––––––––––––––––––––––––––––––––––––––
Analyzed: Rubicon / Rubicon
––––––––––––––––––––––––––––––––––––––––

DR Peak RMS Duration Track
––––––––––––––––––––––––––––––––––––––––
DR9 -0.23 dB -10.58 dB 3:18 01-And The Moon's Out Tonight
DR9 -0.45 dB -12.87 dB 4:49 02-Far Away
DR9 -0.95 dB -11.94 dB 5:23 03-Closely
DR10 -0.34 dB -11.87 dB 4:46 04-Vanilla Gorilla
DR10 -0.44 dB -11.84 dB 3:28 05-I'm Gonna Take Care Of Everything
DR9 -0.65 dB -12.23 dB 3:02 06-I Want To Love You
DR10 -0.79 dB -12.64 dB 3:45 07-Cheatin'
DR10 -0.17 dB -12.42 dB 3:39 08-It's All For The Show
DR11 -0.33 dB -13.27 dB 5:36 09-That's The Way Things Are
––––––––––––––––––––––––––––––––––––––––

Number of tracks: 9
Official DR value: DR10

Samplerate: 44100 Hz
Channels: 2
Bits per sample: 16
Bitrate: 812 kbps
Codec: FLAC

[CUETools log; Date: 04.12.2015 19:56:51; Version: 2.1.5]
[CTDB TOCID: ewclglMfMhjhLOQcGFwTXz841iQ-] found.
Track | CTDB Status
1 | (1/1) Accurately ripped
2 | (1/1) Accurately ripped
3 | (1/1) Accurately ripped
4 | (1/1) Accurately ripped
5 | (1/1) Accurately ripped
6 | (1/1) Accurately ripped
7 | (1/1) Accurately ripped
8 | (1/1) Accurately ripped
9 | (1/1) Accurately ripped
[AccurateRip ID: 000ced1f-005e7d4d-7208da09] found.
Track [ CRC | V2 ] Status
01 [c885090f|3d7e7dc9] (0+0/1) No match
02 [189f88a3|af465b69] (0+0/1) No match
03 [a567bf28|c4d287d1] (0+0/1) No match
04 [ae864500|15846392] (0+0/1) No match
05 [aa723433|d9653ac8] (0+0/1) No match
06 [9f64d9ee|999c5a96] (0+0/1) No match
07 [47f2cde0|9d545c41] (0+0/1) No match
08 [0cc916f2|13fd40d5] (0+0/1) No match
09 [03e277fc|f29ed5dc] (0+0/1) No match
Offsetted by 664:
01 [efb4d1f0] (0/1) No match (V2 was not tested)
02 [8e7d6f97] (0/1) No match (V2 was not tested)
03 [d2f6a9e5] (0/1) No match (V2 was not tested)
04 [961f1eef] (0/1) No match (V2 was not tested)
05 [ba78a9b5] (0/1) No match (V2 was not tested)
06 [dca259af] (0/1) No match (V2 was not tested)
07 [a329fda8] (0/1) No match (V2 was not tested)
08 [1aea45c1] (0/1) No match (V2 was not tested)
09 [e9aa440c] (0/1) No match (V2 was not tested)

Track Peak [ CRC32 ] [W/O NULL] [ LOG ]
– 98,0 [2C1475B0] [3545A4C4] CRC32
01 97,4 [A89219F5] [C70277D7]
02 94,9 [A3248B34] [2DBC386C]
03 89,6 [04EC10DD] [7751165A]
04 96,1 [6095CBCB] [35B73033]
05 95,0 [309B5ED3] [C71276DA]
06 92,8 [163423FE] [13F3D4B1]
07 91,2 [0989F6F7] [B99D2BB7]
08 98,0 [CC4DED27] [B91A7DC2]
09 96,2 [AD7BE3E3] [19CEC625]

Rubicon - America Dreams (1979) [Air Mail Archive AIRAC-1613, Japan]

All thanks go to Sket4er

Rubicon - Rubicon (1978)

Download Rubicon - America Dreams (1979):