Subcategories

Rufus Thomas - The Funkiest Man: The STAX funk Sessions 1967-1975 (2002)

Posted By: jclane
Rufus Thomas - The Funkiest Man: The STAX funk Sessions 1967-1975 (2002)

Rufus Thomas - The Funkiest Man: The STAX funk Sessions 1967-1975 (2002)
XLD Rip | FLAC Image + Cue + Log | 446 MB | Complete Scans, 300 dpi PNG | 27.5 MB
MP3 CBR @320 kbps (LAME 3.99) | Joint Stereo | 174.8 MB
ACE Records | CDSXD 135 | R&B, Funk

This compilation gathers 18 of Thomas' funk-oriented songs from 1967-1975, though only a few '60s sides are here. His biggest funk hit of all, "Do the Funky Chicken," is not here, and though the liners point out that the song is available on other Ace compilations, why not put it on here anyway? In its favor, there's little overlap between this anthology and the Stax CD Funky Chicken, a reissue of his 1969 LP Do the Funky Chicken with seven bonus tracks from his 1968-1974 singles. This also has his three big follow-up hits to "Do the Funky Chicken": "(Do The) Push and Pull (Part 1)," "Do the Funky Penguin (Part 1)," and "The Breakdown (Part 1)." To its detriment, however, the novelty dance funk grooves just get unimaginative, even monotonous, in such a concentrated dose, getting into spin-offs like "Funky Robot (Part 1)," "Do the Double Bump," "The Funky Bird," "Funky Mississippi," and so forth. Rufus Thomas is cool, but he's not James Brown (though the scratchy guitar and jerky rhythms of 1972's "Itch and Scratch (Part 1)" certainly owe a lot to Brown), nor are the backup musicians. When it stretches back as far as 1967 for "Sophisticated Cissy," there's a refreshing injection of more soul-grounded chops, female backup vocals, and horns. Two of the songs, "I'm Getting Better" and "Memphis Train '75," were previously unreleased. Incidentally, this British release is unavailable for sale in North America.

Track Listing:

01. Funkiest man alive - 7:46
02. Give me the green light - 6:31
03. Itch and scratch ( PT. 1) - 3:11
04. Turn your damper down - 2:49
05. Funky hot grits - 5:26
06. I'm getting better - 6:05
07. Sophisticated Sissy - 2:42
08. Funky Mississippi - 2:58
09. Git on up and do it - 2:47
10. The breakdown (PT. 1) - 3:18
11. (Do the) push and pull - 3:17
12. Do the funky penguin - 3:07
13. Do the double bump - 3:05
14. Funky robot (PT. 1) - 2:40
15. Memphis train '75 - 4:54
16. Let the good times roll - 3:36
17. Funky bird - 3:25
18. Rock me back aka rock back - 5:26


X Lossless Decoder version 20121222 (142.2)

XLD extraction logfile from 2013-01-13 00:29:38 +0200

Rufus Thomas / The Funkiest Man - The Stax Funk Sessions 1967-1975

Used drive : MATSHITA DVD-R UJ-898 (revision HC09)
Media type : Pressed CD

Ripper mode : XLD Secure Ripper
Disable audio cache : OK for the drive with a cache less than 1375KiB
Make use of C2 pointers : NO
Read offset correction : 102
Max retry count : 20
Gap status : Analyzed, Appended

TOC of the extracted CD
Track | Start | Length | Start sector | End sector
––––––––––––––––––––––––––––-
1 | 00:00:00 | 07:49:43 | 0 | 35217
2 | 07:49:43 | 06:34:54 | 35218 | 64821
3 | 14:24:22 | 03:14:18 | 64822 | 79389
4 | 17:38:40 | 02:51:60 | 79390 | 92274
5 | 20:30:25 | 05:29:29 | 92275 | 116978
6 | 25:59:54 | 06:08:36 | 116979 | 144614
7 | 32:08:15 | 02:45:39 | 144615 | 157028
8 | 34:53:54 | 03:00:73 | 157029 | 170601
9 | 37:54:52 | 02:50:00 | 170602 | 183351
10 | 40:44:52 | 03:21:26 | 183352 | 198452
11 | 44:06:03 | 03:20:31 | 198453 | 213483
12 | 47:26:34 | 03:10:27 | 213484 | 227760
13 | 50:36:61 | 03:08:14 | 227761 | 241874
14 | 53:45:00 | 02:43:01 | 241875 | 254100
15 | 56:28:01 | 04:57:40 | 254101 | 276415
16 | 61:25:41 | 03:38:69 | 276416 | 292834
17 | 65:04:35 | 03:27:15 | 292835 | 308374
18 | 68:31:50 | 05:26:22 | 308375 | 332846

List of alternate offset correction values
# | Absolute | Relative | Confidence
–––––––––––––––––––––
1 | 200 | 98 | 2

AccurateRip Summary (DiscID: 0033bbdd-0298b55a-05115512)
Track 01 : OK (v1, confidence 2/2, with different offset)
Track 02 : OK (v1, confidence 2/2, with different offset)
Track 03 : OK (v1, confidence 2/2, with different offset)
Track 04 : OK (v1, confidence 2/2, with different offset)
Track 05 : OK (v1, confidence 2/2, with different offset)
Track 06 : OK (v1, confidence 2/2, with different offset)
Track 07 : OK (v1, confidence 2/2, with different offset)
Track 08 : OK (v1, confidence 2/2, with different offset)
Track 09 : OK (v1, confidence 2/2, with different offset)
Track 10 : OK (v1, confidence 2/2, with different offset)
Track 11 : OK (v1, confidence 2/2, with different offset)
Track 12 : OK (v1, confidence 2/2, with different offset)
Track 13 : OK (v1, confidence 2/2, with different offset)
Track 14 : OK (v1, confidence 2/2, with different offset)
Track 15 : OK (v1, confidence 2/2, with different offset)
Track 16 : OK (v1, confidence 2/2, with different offset)
Track 17 : OK (v1, confidence 2/2, with different offset)
Track 18 : OK (v1, confidence 2/2, with different offset)
->All tracks accurately ripped.

All Tracks
Filename : /Users/Home/Music/Music/myRips/rufus thomas-the funkiest man-2002/Rufus Thomas - The Funkiest Man - The Stax Funk Sessions 1967-1975 .flac
Album gain : -5.76 dB
Peak : 0.997009
CRC32 hash (test run) : 676B6366
CRC32 hash : 676B6366
CRC32 hash (skip zero) : D6D17A1E
Statistics
Read error : 0
Jitter error (maybe fixed) : 0
Retry sector count : 0
Damaged sector count : 0

Track 01
Pre-gap length : 00:02:00

Track gain : -5.63 dB
Peak : 0.995789
CRC32 hash (test run) : 27B417EA
CRC32 hash : 27B417EA
CRC32 hash (skip zero) : CA313ABD
AccurateRip v1 signature : C9CE756D (1D8EA0AA w/correction)
AccurateRip v2 signature : C1E2D58D
->Accurately ripped with different offset (v1, confidence 2/2, offset +98)
Statistics
Read error : 0
Jitter error (maybe fixed) : 0
Retry sector count : 0
Damaged sector count : 0

Track 02
Pre-gap length : 00:02:58

Track gain : -6.29 dB
Peak : 0.979126
CRC32 hash (test run) : D17E335D
CRC32 hash : D17E335D
CRC32 hash (skip zero) : 3B71E0E1
AccurateRip v1 signature : 960DAEEB (A48E2A31 w/correction)
AccurateRip v2 signature : CE37FB30
->Accurately ripped with different offset (v1, confidence 2/2, offset +98)
Statistics
Read error : 0
Jitter error (maybe fixed) : 0
Retry sector count : 0
Damaged sector count : 0

Track 03
Pre-gap length : 00:02:58

Track gain : -4.98 dB
Peak : 0.906097
CRC32 hash (test run) : 5DAD516D
CRC32 hash : 5DAD516D
CRC32 hash (skip zero) : 16879E7C
AccurateRip v1 signature : 4693EEFF (33A68D56 w/correction)
AccurateRip v2 signature : F98C4D02
->Accurately ripped with different offset (v1, confidence 2/2, offset +98)
Statistics
Read error : 0
Jitter error (maybe fixed) : 0
Retry sector count : 0
Damaged sector count : 0

Track 04
Pre-gap length : 00:02:57

Track gain : -6.54 dB
Peak : 0.960083
CRC32 hash (test run) : 39289919
CRC32 hash : 39289919
CRC32 hash (skip zero) : BA8ACE02
AccurateRip v1 signature : 32C935BF (89F38797 w/correction)
AccurateRip v2 signature : 8C9C2144
->Accurately ripped with different offset (v1, confidence 2/2, offset +98)
Statistics
Read error : 0
Jitter error (maybe fixed) : 0
Retry sector count : 0
Damaged sector count : 0

Track 05
Pre-gap length : 00:02:57

Track gain : -6.93 dB
Peak : 0.996124
CRC32 hash (test run) : 8F7A7BD7
CRC32 hash : 8F7A7BD7
CRC32 hash (skip zero) : 47C74DFC
AccurateRip v1 signature : EF0FE6BF (F5AC35F0 w/correction)
AccurateRip v2 signature : C0DC9BB3
->Accurately ripped with different offset (v1, confidence 2/2, offset +98)
Statistics
Read error : 0
Jitter error (maybe fixed) : 0
Retry sector count : 0
Damaged sector count : 0

Track 06
Pre-gap length : 00:02:58

Track gain : -5.57 dB
Peak : 0.961273
CRC32 hash (test run) : A1BEDD9F
CRC32 hash : A1BEDD9F
CRC32 hash (skip zero) : 3999BF24
AccurateRip v1 signature : 5872AF51 (3710C4F7 w/correction)
AccurateRip v2 signature : FB72D37C
->Accurately ripped with different offset (v1, confidence 2/2, offset +98)
Statistics
Read error : 0
Jitter error (maybe fixed) : 0
Retry sector count : 0
Damaged sector count : 0

Track 07
Pre-gap length : 00:02:57

Track gain : -5.87 dB
Peak : 0.904022
CRC32 hash (test run) : 4FB27FF3
CRC32 hash : 4FB27FF3
CRC32 hash (skip zero) : C5F06305
AccurateRip v1 signature : 5315F152 (64258CE4 w/correction)
AccurateRip v2 signature : 62FD843D
->Accurately ripped with different offset (v1, confidence 2/2, offset +98)
Statistics
Read error : 0
Jitter error (maybe fixed) : 0
Retry sector count : 0
Damaged sector count : 0

Track 08
Pre-gap length : 00:02:57

Track gain : -6.18 dB
Peak : 0.960846
CRC32 hash (test run) : 0573E765
CRC32 hash : 0573E765
CRC32 hash (skip zero) : 702131F1
AccurateRip v1 signature : DEC4FEEB (A64A9558 w/correction)
AccurateRip v2 signature : A617D324
->Accurately ripped with different offset (v1, confidence 2/2, offset +98)
Statistics
Read error : 0
Jitter error (maybe fixed) : 0
Retry sector count : 0
Damaged sector count : 0

Track 09
Pre-gap length : 00:02:58

Track gain : -5.61 dB
Peak : 0.946899
CRC32 hash (test run) : 62927477
CRC32 hash : 62927477
CRC32 hash (skip zero) : FDBDE9D8
AccurateRip v1 signature : 0B6E46E8 (5C83B8BF w/correction)
AccurateRip v2 signature : AB1CA41A
->Accurately ripped with different offset (v1, confidence 2/2, offset +98)
Statistics
Read error : 0
Jitter error (maybe fixed) : 0
Retry sector count : 0
Damaged sector count : 0

Track 10
Pre-gap length : 00:02:58

Track gain : -4.83 dB
Peak : 0.958313
CRC32 hash (test run) : 03E2A7B5
CRC32 hash : 03E2A7B5
CRC32 hash (skip zero) : 6F73E19C
AccurateRip v1 signature : D2807A87 (DD019663 w/correction)
AccurateRip v2 signature : 7B4C585B
->Accurately ripped with different offset (v1, confidence 2/2, offset +98)
Statistics
Read error : 0
Jitter error (maybe fixed) : 0
Retry sector count : 0
Damaged sector count : 0

Track 11
Pre-gap length : 00:02:57

Track gain : -5.27 dB
Peak : 0.957184
CRC32 hash (test run) : 41CB084D
CRC32 hash : 41CB084D
CRC32 hash (skip zero) : 8F894A89
AccurateRip v1 signature : 936E06D8 (8B92ADDE w/correction)
AccurateRip v2 signature : C4C55A5A
->Accurately ripped with different offset (v1, confidence 2/2, offset +98)
Statistics
Read error : 0
Jitter error (maybe fixed) : 0
Retry sector count : 0
Damaged sector count : 0

Track 12
Pre-gap length : 00:02:57

Track gain : -3.63 dB
Peak : 0.971039
CRC32 hash (test run) : 7DBC3E1E
CRC32 hash : 7DBC3E1E
CRC32 hash (skip zero) : 29012C6F
AccurateRip v1 signature : 19809466 (FCBC65B4 w/correction)
AccurateRip v2 signature : 8BFF3EFE
->Accurately ripped with different offset (v1, confidence 2/2, offset +98)
Statistics
Read error : 0
Jitter error (maybe fixed) : 0
Retry sector count : 0
Damaged sector count : 0

Track 13
Pre-gap length : 00:02:57

Track gain : -3.67 dB
Peak : 0.916504
CRC32 hash (test run) : 50C008BD
CRC32 hash : 50C008BD
CRC32 hash (skip zero) : A3C7D589
AccurateRip v1 signature : AB5D794D (8951C596 w/correction)
AccurateRip v2 signature : E609C2F4
->Accurately ripped with different offset (v1, confidence 2/2, offset +98)
Statistics
Read error : 0
Jitter error (maybe fixed) : 0
Retry sector count : 0
Damaged sector count : 0

Track 14
Pre-gap length : 00:02:58

Track gain : -3.53 dB
Peak : 0.939117
CRC32 hash (test run) : 890820D7
CRC32 hash : 890820D7
CRC32 hash (skip zero) : EE66472A
AccurateRip v1 signature : 829F77A9 (F8A30C46 w/correction)
AccurateRip v2 signature : D0C73EF8
->Accurately ripped with different offset (v1, confidence 2/2, offset +98)
Statistics
Read error : 0
Jitter error (maybe fixed) : 0
Retry sector count : 0
Damaged sector count : 0

Track 15
Pre-gap length : 00:02:58

Track gain : -6.01 dB
Peak : 0.933746
CRC32 hash (test run) : E98074D6
CRC32 hash : E98074D6
CRC32 hash (skip zero) : F977543C
AccurateRip v1 signature : 1FF31B21 (A0E30BBD w/correction)
AccurateRip v2 signature : 8BB6295F
->Accurately ripped with different offset (v1, confidence 2/2, offset +98)
Statistics
Read error : 0
Jitter error (maybe fixed) : 0
Retry sector count : 0
Damaged sector count : 0

Track 16
Pre-gap length : 00:02:58

Track gain : -6.01 dB
Peak : 0.983337
CRC32 hash (test run) : E1A5F242
CRC32 hash : E1A5F242
CRC32 hash (skip zero) : 540AE7E8
AccurateRip v1 signature : 58C8FF7D (DF4F4DE1 w/correction)
AccurateRip v2 signature : FE38B331
->Accurately ripped with different offset (v1, confidence 2/2, offset +98)
Statistics
Read error : 0
Jitter error (maybe fixed) : 0
Retry sector count : 0
Damaged sector count : 0

Track 17
Pre-gap length : 00:02:57

Track gain : -3.97 dB
Peak : 0.968353
CRC32 hash (test run) : 59F8DC21
CRC32 hash : 59F8DC21
CRC32 hash (skip zero) : 7E033F0D
AccurateRip v1 signature : 4D382FE8 (2C5F50FD w/correction)
AccurateRip v2 signature : D11860A4
->Accurately ripped with different offset (v1, confidence 2/2, offset +98)
Statistics
Read error : 0
Jitter error (maybe fixed) : 0
Retry sector count : 0
Damaged sector count : 0

Track 18
Pre-gap length : 00:02:05

Track gain : -4.07 dB
Peak : 0.997009
CRC32 hash (test run) : 8DFFF813
CRC32 hash : 8DFFF813
CRC32 hash (skip zero) : C95E06D6
AccurateRip v1 signature : 6EB6F652 (BAA14B09 w/correction)
AccurateRip v2 signature : 23E7917F
->Accurately ripped with different offset (v1, confidence 2/2, offset +98)
Statistics
Read error : 0
Jitter error (maybe fixed) : 0
Retry sector count : 0
Damaged sector count : 0

No errors occurred

End of status report


Recorded Date: 1967-1975
Released Date: 2002
Format: CD, Compilation
Length: 73:58

Rufus Thomas - The Funkiest Man: The STAX funk Sessions 1967-1975 (2002)
Rufus Thomas - The Funkiest Man: The STAX funk Sessions 1967-1975 (2002)

******************************************************

CD Rip by igaann

The files are interchangeable!