Subcategories

Rupert Holmes - Best One (1997) [Japan] {20bit K2 Mastering}

Posted By: BlondStyle
Rupert Holmes - Best One (1997) [Japan] {20bit K2 Mastering}

Rupert Holmes - Best One (1997) [Japan] {20bit K2 Mastering}
Pop/Rock, Soft Rock, Singer-songwriter | EAC Rip | FLAC, Img+CUE+LOG+Scans (PNG) | 53:32 |505,64 Mb
Label: Universal Victor, Inc. (Japan) | Cat.# MVCM-2530 | Released: 1997-11-21
Rupert Holmes - Best One (1997) [Japan] {20bit K2 Mastering}

Rupert Holmes (born David Goldstein on February 24, 1947) is a British-American composer, singer-songwriter, musician, dramatist and author. He is widely known for the hit singles "Escape (The Piña Colada Song)" (1979) and "Him" (1980). As a recording artist, Holmes broke through with his first album, 1974's "Widescreen" on Epic Records, which introduced him as a presenter of highly romantic, lushly orchestrated "story songs" that told a witty narrative punctuated by clever rhymes and a hint of comedy. Barbra Streisand discovered this album and asked to record songs from it, launching Holmes on a successful career. She then used some of his songs in the movie "A Star Is Born". Holmes also arranged, conducted, and wrote songs on her 1975 album "Lazy Afternoon" as well as five other Streisand albums.
~Wikipedia

Rupert Holmes - Best One (1997) [Japan] {20bit K2 Mastering}

Rupert Holmes - Best One (1997) [Japan] {20bit K2 Mastering}

Rupert Holmes - Best One (1997) [Japan] {20bit K2 Mastering}




Release of this CD: 1997, November, 21 [CD Universal Victor, Inc. (Japan), Cat.# MVCM-2530, EAN: 4988067030597]
© 1997 & ℗ 1980, 1979, 1978 MCA Records, Inc.
This compilation ℗ 1997 Universal Victor, Inc.
Manufactured and Distributed by Universal Victor, Inc., Japan.

Tracklist:

01. Escape (The Pina Colada Song) (04:39)
02. Nearsighted (02:55)
03. Him (04:14)
04. Get Outta Yourself (04:50)
05. In You I Trust (05:05)
06. Less Is More (04:32)
07. Speechless (04:46)
08. Cradle Me (03:23)
09. So Beautiful It Hurts (05:23)
10. Bedside Companions (03:23)
11. Morning Man (04:01)
12. I Don't Need You (03:27)
13. Special Thanks (02:54)

Exact Audio Copy V1.3 from 2. September 2016

EAC extraction logfile from 27. March 2019, 22:27

Rupert Holmes / Best One

Used drive : PIONEER BD-RW BDR-208D Adapter: 1 ID: 0

Read mode : Secure
Utilize accurate stream : Yes
Defeat audio cache : Yes
Make use of C2 pointers : No

Read offset correction : 667
Overread into Lead-In and Lead-Out : No
Fill up missing offset samples with silence : Yes
Delete leading and trailing silent blocks : No
Null samples used in CRC calculations : Yes
Used interface : Native Win32 interface for Win NT & 2000

Used output format : Internal WAV Routines
Sample format : 44.100 Hz; 16 Bit; Stereo


TOC of the extracted CD

Track | Start | Length | Start sector | End sector
––––––––––––––––––––––––––––-
1 | 0:00.37 | 4:39.08 | 37 | 20969
2 | 4:39.45 | 2:54.57 | 20970 | 34076
3 | 7:34.27 | 4:14.13 | 34077 | 53139
4 | 11:48.40 | 4:49.47 | 53140 | 74861
5 | 16:38.12 | 5:04.58 | 74862 | 97719
6 | 21:42.70 | 4:31.47 | 97720 | 118091
7 | 26:14.42 | 4:45.60 | 118092 | 139526
8 | 31:00.27 | 3:22.70 | 139527 | 154746
9 | 34:23.22 | 5:23.03 | 154747 | 178974
10 | 39:46.25 | 3:23.22 | 178975 | 194221
11 | 43:09.47 | 4:00.70 | 194222 | 212291
12 | 47:10.42 | 3:27.08 | 212292 | 227824
13 | 50:37.50 | 2:54.25 | 227825 | 240899


Range status and errors

Selected range

Filename D:\BlondStyle\Rupert Holmes - Best One.wav

Peak level 100.0 %
Extraction speed 6.6 X
Range quality 100.0 %
Test CRC 2C6B3F57
Copy CRC 2C6B3F57
Copy OK

No errors occurred


AccurateRip summary

Track 1 accurately ripped (confidence 3) [AF08BE69] (AR v2)
Track 2 accurately ripped (confidence 3) [D285E9C6] (AR v2)
Track 3 accurately ripped (confidence 3) [D420C3AB] (AR v2)
Track 4 accurately ripped (confidence 3) [166B8283] (AR v2)
Track 5 accurately ripped (confidence 3) [E3BEC008] (AR v2)
Track 6 accurately ripped (confidence 3) [337BBF33] (AR v2)
Track 7 accurately ripped (confidence 3) [56E38B85] (AR v2)
Track 8 accurately ripped (confidence 3) [935C48F4] (AR v2)
Track 9 accurately ripped (confidence 3) [6A16AD0E] (AR v2)
Track 10 accurately ripped (confidence 3) [8B070E15] (AR v2)
Track 11 accurately ripped (confidence 3) [4D4DA258] (AR v2)
Track 12 accurately ripped (confidence 3) [722F67CC] (AR v2)
Track 13 accurately ripped (confidence 3) [A1E93E96] (AR v2)

All tracks accurately ripped

End of status report

–– CUETools DB Plugin V2.1.6

[CTDB TOCID: jEBIot7vkVZaDwxZj1SSEGfSbkA-] found
Submit result: jEBIot7vkVZaDwxZj1SSEGfSbkA- has been confirmed
Track | CTDB Status
1 | (5/5) Accurately ripped
2 | (5/5) Accurately ripped
3 | (5/5) Accurately ripped
4 | (5/5) Accurately ripped
5 | (5/5) Accurately ripped
6 | (5/5) Accurately ripped
7 | (5/5) Accurately ripped
8 | (5/5) Accurately ripped
9 | (5/5) Accurately ripped
10 | (5/5) Accurately ripped
11 | (5/5) Accurately ripped
12 | (5/5) Accurately ripped
13 | (5/5) Accurately ripped


==== Log checksum D62859CE1F838487383128F8661A454514BDF2D99C91C89A5FE9F370B099C97C ====

––––––––––––––––––––––––––––––––––––––––
Analyzed: Rupert Holmes / Best One
––––––––––––––––––––––––––––––––––––––––

DR Peak RMS Duration Track
––––––––––––––––––––––––––––––––––––––––
DR14 -0.20 dB -16.65 dB 4:39 01-Escape (The Pina Colada Song)
DR12 -0.30 dB -16.44 dB 2:55 02-Nearsighted
DR13 -0.20 dB -16.56 dB 4:14 03-Him
DR14 0.00 dB -17.49 dB 4:50 04-Get Outta Yourself
DR13 -0.01 dB -16.19 dB 5:05 05-In You I Trust
DR12 -1.09 dB -14.50 dB 4:32 06-Less Is More
DR12 -2.77 dB -15.95 dB 4:46 07-Speechless
DR13 -0.20 dB -14.94 dB 3:23 08-Cradle Me
DR13 -1.16 dB -15.42 dB 5:23 09-So Beautiful It Hurts
DR13 -1.29 dB -17.02 dB 3:23 10-Bedside Companions
DR12 -0.84 dB -14.81 dB 4:01 11-Morning Man
DR11 -0.36 dB -14.14 dB 3:27 12-I Don't Need You
DR12 -2.27 dB -16.34 dB 2:54 13-Special Thanks
––––––––––––––––––––––––––––––––––––––––

Number of tracks: 13
Official DR value: DR13

Samplerate: 44100 Hz
Channels: 2
Bits per sample: 16
Bitrate: 820 kbps
Codec: FLAC
================================================================================

See also:
Rupert Holmes - Widescreen (1974) [1995, Remastered with Bonus Tracks]

♫~Welcome To My Blog~♫

password: BlondStyle