Subcategories
Tags
Language
Tags

Rural L. Burnside - Mississippi Blues (1984) [Reissue 1997]

Posted By: gribovar
Rural L. Burnside - Mississippi Blues (1984) [Reissue 1997]

Rural L. Burnside - Mississippi Blues (1984) [Reissue 1997]
EAC Rip | FLAC (tracks+.cue+log) - 196 MB | MP3 CBR 320 kbps (LAME 3.93) - 91 MB | Covers - 34 MB
Genre: Country Blues, Delta Blues | RAR 3% Rec. | Label: Arion (ARN 60397)

On this recording, Burnside presents the blues in its original and purest form. His music is not very different from the Southern blues of the 1900s. Five songs from this recording, ‘Jumper hanging on the line’, ‘Long-Haired Doney’, ‘Poor Black Mattie’, ‘Catfish Blues’ and ‘Rolling and Tumbling’, are versions of traditional blues pieces that are known to everyone in the State of Mississippi. These songs date from before the blues structures with standardised texts and harmonies; they are close to the ‘hollers’ and the vocal line is supported by the repetition of the musical phrase on the guitar. The other songs are adaptations, by Burnside himself, of hits of the 1950s. Other blues artists from Mississippi and Texas perform these songs: Robert Nighthawk, Lightnin’ Hopkins, Elmore James and John Lee Hooker. After immersing himself in these versions, Burnside gives his own, very personal interpretation: the result is almost traditional. Thus, the record industry feeds the oral tradition which Burnside perpetuates. His life and music are like those of the early blues singers, and his songs express the same sadness at the present, whilst pleading for a better future.
Tracks 1, 2, 4-9, & 11 recorded at Maison des Cultures du Monde during the 10th Festival des Arts Traditionnels, France, 1983.
Tracks 3 & 11 recorded at the University of Memphis.
Tracklist:
01. Jumper Hanging Out On The Line
02. Sweet Little Angel
03. Long Haired Doney
04. Nightmare Blues
05. Poor Black Mattie
06. Catfish Blues
07. Death Bells
08. Dust My Broom
09. Bad Luck And Trouble
10. Rolling And Tumbling
11. When My First Wife Quit Me

Total time: 38:37

Exact Audio Copy V1.3 from 2. September 2016

EAC extraction logfile from 17. March 2021, 19:11

Rural L. Burnside / Mississippi Blues

Used drive : TS8XDVDSTRANSCEND Adapter: 1 ID: 1

Read mode : Secure
Utilize accurate stream : Yes
Defeat audio cache : Yes
Make use of C2 pointers : No

Read offset correction : 6
Overread into Lead-In and Lead-Out : No
Fill up missing offset samples with silence : Yes
Delete leading and trailing silent blocks : No
Null samples used in CRC calculations : Yes
Used interface : Native Win32 interface for Win NT & 2000
Gap handling : Appended to previous track

Used output format : User Defined Encoder
Selected bitrate : 1024 kBit/s
Quality : High
Add ID3 tag : No
Command line compressor : C:\Program Files (x86)\Exact Audio Copy\FLAC\FLAC.EXE
Additional command line options : -V -8 -T "Genre=%genre%" -T "Artist=%artist%" -T "Title=%title%" -T "Album=%albumtitle%" -T "Date=%year%" -T "Tracknumber=%tracknr%" %source% -o %dest%


TOC of the extracted CD

Track | Start | Length | Start sector | End sector
––––––––––––––––––––––––––––-
1 | 0:00.00 | 2:35.67 | 0 | 11691
2 | 2:35.67 | 3:08.13 | 11692 | 25804
3 | 5:44.05 | 2:35.20 | 25805 | 37449
4 | 8:19.25 | 3:24.50 | 37450 | 52799
5 | 11:44.00 | 3:25.42 | 52800 | 68216
6 | 15:09.42 | 4:41.68 | 68217 | 89359
7 | 19:51.35 | 2:56.32 | 89360 | 102591
8 | 22:47.67 | 4:29.70 | 102592 | 122836
9 | 27:17.62 | 3:40.43 | 122837 | 139379
10 | 30:58.30 | 4:02.55 | 139380 | 157584
11 | 35:01.10 | 3:36.24 | 157585 | 173808


Track 1

Filename G:\to up\_toscans\Rural L. Burnside - Mississippi Blues - 1997 (Arion) [CD FLAC]\01. Jumper Hanging Out on the Line.wav

Pre-gap length 0:00:02.00

Peak level 88.9 %
Extraction speed 1.0 X
Track quality 100.0 %
Test CRC D8DF9A7E
Copy CRC D8DF9A7E
Accurately ripped (confidence 3) [26D2325D] (AR v2)
Copy OK

Track 2

Filename G:\to up\_toscans\Rural L. Burnside - Mississippi Blues - 1997 (Arion) [CD FLAC]\02. Sweet Little Angel.wav

Pre-gap length 0:00:03.22

Peak level 89.6 %
Extraction speed 1.1 X
Track quality 100.0 %
Test CRC CE636824
Copy CRC CE636824
Accurately ripped (confidence 3) [AB9D0F50] (AR v2)
Copy OK

Track 3

Filename G:\to up\_toscans\Rural L. Burnside - Mississippi Blues - 1997 (Arion) [CD FLAC]\03. Long Haired Doney.wav

Pre-gap length 0:00:02.05

Peak level 75.2 %
Extraction speed 1.2 X
Track quality 100.0 %
Test CRC 4FAB4C59
Copy CRC 4FAB4C59
Accurately ripped (confidence 3) [D10D0363] (AR v2)
Copy OK

Track 4

Filename G:\to up\_toscans\Rural L. Burnside - Mississippi Blues - 1997 (Arion) [CD FLAC]\04. Nightmare Blues.wav

Pre-gap length 0:00:03.00

Peak level 89.6 %
Extraction speed 1.3 X
Track quality 100.0 %
Test CRC F5201418
Copy CRC F5201418
Accurately ripped (confidence 3) [9A3DC78B] (AR v2)
Copy OK

Track 5

Filename G:\to up\_toscans\Rural L. Burnside - Mississippi Blues - 1997 (Arion) [CD FLAC]\05. Poor Black Mattie.wav

Pre-gap length 0:00:01.18

Peak level 89.1 %
Extraction speed 1.4 X
Track quality 100.0 %
Test CRC 1ADEED7F
Copy CRC 1ADEED7F
Accurately ripped (confidence 3) [F7D1B87A] (AR v2)
Copy OK

Track 6

Filename G:\to up\_toscans\Rural L. Burnside - Mississippi Blues - 1997 (Arion) [CD FLAC]\06. Catfish Blues.wav

Pre-gap length 0:00:03.10

Peak level 88.9 %
Extraction speed 1.6 X
Track quality 100.0 %
Test CRC AD6A5C59
Copy CRC AD6A5C59
Accurately ripped (confidence 3) [471905CC] (AR v2)
Copy OK

Track 7

Filename G:\to up\_toscans\Rural L. Burnside - Mississippi Blues - 1997 (Arion) [CD FLAC]\07. Death Bells.wav

Pre-gap length 0:00:02.68

Peak level 89.5 %
Extraction speed 1.6 X
Track quality 100.0 %
Test CRC 13762FF9
Copy CRC 13762FF9
Accurately ripped (confidence 3) [0BA16325] (AR v2)
Copy OK

Track 8

Filename G:\to up\_toscans\Rural L. Burnside - Mississippi Blues - 1997 (Arion) [CD FLAC]\08. Dust My Broom.wav

Pre-gap length 0:00:01.17

Peak level 98.0 %
Extraction speed 1.6 X
Track quality 99.9 %
Test CRC 7AAB50C0
Copy CRC 7AAB50C0
Accurately ripped (confidence 3) [FEB22404] (AR v2)
Copy OK

Track 9

Filename G:\to up\_toscans\Rural L. Burnside - Mississippi Blues - 1997 (Arion) [CD FLAC]\09. Bad Luck and Trouble.wav

Pre-gap length 0:00:02.72

Peak level 89.1 %
Extraction speed 1.8 X
Track quality 100.0 %
Test CRC 1DC17BEA
Copy CRC 1DC17BEA
Accurately ripped (confidence 3) [5F650F23] (AR v2)
Copy OK

Track 10

Filename G:\to up\_toscans\Rural L. Burnside - Mississippi Blues - 1997 (Arion) [CD FLAC]\10. Rolling and Tumbling.wav

Pre-gap length 0:00:01.48

Peak level 89.4 %
Extraction speed 1.9 X
Track quality 100.0 %
Test CRC 6174F685
Copy CRC 6174F685
Accurately ripped (confidence 3) [6B75CEAD] (AR v2)
Copy OK

Track 11

Filename G:\to up\_toscans\Rural L. Burnside - Mississippi Blues - 1997 (Arion) [CD FLAC]\11. When My First Wife Quit Me.wav

Pre-gap length 0:00:03.00

Peak level 89.7 %
Extraction speed 1.9 X
Track quality 100.0 %
Test CRC 1CF7002A
Copy CRC 1CF7002A
Accurately ripped (confidence 3) [38AA9465] (AR v2)
Copy OK


All tracks accurately ripped

No errors occurred

End of status report

–– CUETools DB Plugin V2.1.6

[CTDB TOCID: kMeXXemIV4zCUuhWmxHMUQkzIkM-] found
Submit result: unrecognized or virtual drive
Track | CTDB Status
1 | (5/5) Accurately ripped
2 | (4/5) Accurately ripped
3 | (4/5) Accurately ripped
4 | (5/5) Accurately ripped
5 | (5/5) Accurately ripped
6 | (5/5) Accurately ripped
7 | (5/5) Accurately ripped
8 | (5/5) Accurately ripped
9 | (5/5) Accurately ripped
10 | (5/5) Accurately ripped
11 | (5/5) Accurately ripped


==== Log checksum 272F9B37F3F284B8C910305C63FC9DD99F0BE2C887B60ED3C0CE06D809F5E58E ====

[CUETools log; Date: 18.04.2021 10:53:34; Version: 2.1.4]
[CTDB TOCID: kMeXXemIV4zCUuhWmxHMUQkzIkM-] found.
Track | CTDB Status
1 | (6/6) Accurately ripped
2 | (5/6) Accurately ripped
3 | (5/6) Accurately ripped
4 | (6/6) Accurately ripped
5 | (6/6) Accurately ripped
6 | (6/6) Accurately ripped
7 | (6/6) Accurately ripped
8 | (6/6) Accurately ripped
9 | (6/6) Accurately ripped
10 | (6/6) Accurately ripped
11 | (6/6) Accurately ripped
[AccurateRip ID: 000efa17-008493fa-83090d0b] found.
Track [ CRC | V2 ] Status
01 [4dbd277b|26d2325d] (3+3/6) Accurately ripped
02 [b6ff3a0f|ab9d0f50] (3+3/6) Accurately ripped
03 [a62070ea|d10d0363] (3+3/6) Accurately ripped
04 [0c71c31c|9a3dc78b] (3+3/6) Accurately ripped
05 [548f81de|f7d1b87a] (3+3/6) Accurately ripped
06 [a1ab9756|471905cc] (3+3/6) Accurately ripped
07 [3d5e9e91|0ba16325] (3+3/6) Accurately ripped
08 [a4d75038|feb22404] (3+3/6) Accurately ripped
09 [bb2e16f5|5f650f23] (3+3/6) Accurately ripped
10 [32358122|6b75cead] (3+3/6) Accurately ripped
11 [253e086d|38aa9465] (3+3/6) Accurately ripped

Track Peak [ CRC32 ] [W/O NULL] [ LOG ]
– 98,0 [5B5868C1] [FDC1A74D]
01 88,9 [D8DF9A7E] [5D76E36D] CRC32
02 89,6 [CE636824] [698AA889] CRC32
03 75,2 [4FAB4C59] [17569231] CRC32
04 89,6 [F5201418] [87449159] CRC32
05 89,1 [1ADEED7F] [4CEA98FF] CRC32
06 88,9 [AD6A5C59] [20C431F3] CRC32
07 89,5 [13762FF9] [BDA6FA68] CRC32
08 98,0 [7AAB50C0] [94892EAC] CRC32
09 89,1 [1DC17BEA] [9B34AD29] CRC32
10 89,4 [6174F685] [901D96AD] CRC32
11 89,7 [1CF7002A] [ECBE352C] CRC32

Thanks to Musicgate