Subcategories

Rush - All The World's A Stage (1976) Repost

Posted By: v3122
Rush - All The World's A Stage (1976) Repost

Rush - All The World's A Stage (1976)
EAC | Flac(Image) + Cue + Log & MP3 CBR 320Kbps
1997 | Mercury, 534 627-2 | ~ 546 or 192 Mb | Scans(jpg) -> 27 Mb
Progressive Rock | Remastered

The '70s may forever be remembered as the decade of the "live album," where many rock artists (Kiss, Peter Frampton, Cheap Trick, etc.) used the format for their commercial breakthrough. While Rush's All the World's a Stage is not as renowned as the aforementioned bands' live albums, it is still one of the better in-concert rock releases of the decade, and helped solidify the trio's stature as one of rock's fastest rising stars. Eventually, Rush would polish their live sound to sound almost like a studio record, but in the mid-'70s, they were still a raw and raging hard rock band, captured perfectly on All the World's a Stage Comprised almost entirely of their heavier material, the album packs quite a punch – "Bastille Day" and "Anthem" prove to be a killer opening combination, while over-the-top renditions of their extended epics "2112" and "By-Tor & the Snow Dog" prove to be standouts. Even their more tranquil studio material proves more explosive in concert ("Fly by Night," "Something for Nothing," "Lakeside Park," "In the End"). All the World's a Stage was a fitting way of closing the first chapter of Rush, as the liner notes state.

by Greg Prato, allmusic
Rush - All The World's A Stage (1976):

Rush - All The World's A Stage (1976) Repost

Tracklist:

1. Bastille Day
2. Anthem
3. Fly By Night / In The Mood
4. Something For Nothing
5. Lakeside Park
6. 2112
7. By-Tor And The Snow Dog
8. In The End
9. Working Man / Finding My Way
10. What You're Doing

Exact Audio Copy V1.1 from 23. June 2015

EAC extraction logfile from 27. March 2016, 14:39

Rush / All The World's A Stage

Used drive : ASUS DRW-24B1ST Adapter: 1 ID: 1

Read mode : Secure
Utilize accurate stream : Yes
Defeat audio cache : Yes
Make use of C2 pointers : No

Read offset correction : 6
Overread into Lead-In and Lead-Out : No
Fill up missing offset samples with silence : Yes
Delete leading and trailing silent blocks : No
Null samples used in CRC calculations : Yes
Used interface : Native Win32 interface for Win NT & 2000

Used output format : User Defined Encoder
Selected bitrate : 1024 kBit/s
Quality : High
Add ID3 tag : No
Command line compressor : C:\Program Files (x86)\Exact Audio Copy\Flac\flac.exe
Additional command line options : -V -8 -T "Date=%year%" -T "Genre=%genre%" %source%


TOC of the extracted CD

Track | Start | Length | Start sector | End sector
––––––––––––––––––––––––––––-
1 | 0:00.00 | 4:57.55 | 0 | 22329
2 | 4:57.55 | 4:56.00 | 22330 | 44529
3 | 9:53.55 | 5:03.70 | 44530 | 67324
4 | 14:57.50 | 4:02.62 | 67325 | 85536
5 | 19:00.37 | 5:04.18 | 85537 | 108354
6 | 24:04.55 | 15:50.17 | 108355 | 179621
7 | 39:54.72 | 11:57.68 | 179622 | 233464
8 | 51:52.65 | 7:13.00 | 233465 | 265939
9 | 59:05.65 | 14:56.15 | 265940 | 333154
10 | 74:02.05 | 5:40.05 | 333155 | 358659


Range status and errors

Selected range

Filename E:\Torrent\Rush\1976 - All The World's A Stage (1997 Remastered, Mercury Records, 534 627-2, Germany)\Rush - All The World's A Stage.wav

Peak level 97.8 %
Extraction speed 6.4 X
Range quality 99.9 %
Test CRC C8409ACE
Copy CRC C8409ACE
Copy OK

No errors occurred


AccurateRip summary

Track 1 accurately ripped (confidence 15) [D795A119] (AR v2)
Track 2 accurately ripped (confidence 15) [B824BD87] (AR v2)
Track 3 accurately ripped (confidence 15) [36B92A5D] (AR v2)
Track 4 accurately ripped (confidence 15) [ACF370B4] (AR v2)
Track 5 accurately ripped (confidence 15) [2944005B] (AR v2)
Track 6 accurately ripped (confidence 14) [86C20C63] (AR v2)
Track 7 accurately ripped (confidence 14) [D97A2F19] (AR v2)
Track 8 accurately ripped (confidence 14) [6C26FF9B] (AR v2)
Track 9 accurately ripped (confidence 14) [D8BE73CF] (AR v2)
Track 10 accurately ripped (confidence 14) [7EEB27CC] (AR v2)

All tracks accurately ripped

End of status report

–– CUETools DB Plugin V2.1.6

[CTDB TOCID: qSmbrFC2H4Gnp4hF5b4f.0lFsw8-] found
Submit result: qSmbrFC2H4Gnp4hF5b4f.0lFsw8- has been confirmed
Track | CTDB Status
1 | (58/58) Accurately ripped
2 | (57/58) Accurately ripped
3 | (57/58) Accurately ripped
4 | (58/58) Accurately ripped
5 | (56/58) Accurately ripped
6 | (54/58) Accurately ripped
7 | (54/58) Accurately ripped
8 | (55/58) Accurately ripped
9 | (53/58) Accurately ripped
10 | (52/58) Accurately ripped


==== Log checksum 2765C3BAE4EAC267FA63465D362E4E7FAB6BE680C63C4CA9C7BAD0D096BE461A ====


[CUETools log; Date: 02.01.2018 5:21:02; Version: 2.1.5]
[AccurateRip ID: 0019ec67-00da8446-9a12ae0a] found.
Track [ CRC | V2 ] Status
01 [a6564ff1|d795a119] (005+018/104) Accurately ripped
02 [69a223df|b824bd87] (005+018/105) Accurately ripped
03 [438e440f|36b92a5d] (005+018/105) Accurately ripped
04 [2cd94838|acf370b4] (005+018/105) Accurately ripped
05 [d55cadfe|2944005b] (005+018/105) Accurately ripped
06 [8221c817|86c20c63] (005+017/104) Accurately ripped
07 [5df54cdd|d97a2f19] (005+017/102) Accurately ripped
08 [f207c69b|6c26ff9b] (005+017/103) Accurately ripped
09 [8667047a|d8be73cf] (005+017/102) Accurately ripped
10 [92d1aa91|7eeb27cc] (005+017/096) Accurately ripped
Offsetted by 667:
01 [a44ebf16] (014/104) Accurately ripped
02 [bcb6a597] (015/105) Accurately ripped
03 [89c579f8] (015/105) Accurately ripped
04 [82929c44] (015/105) Accurately ripped
05 [0fe21e1d] (015/105) Accurately ripped
06 [5e32e590] (015/104) Accurately ripped
07 [c60b5ca1] (015/102) Accurately ripped
08 [3e3a5be1] (014/103) Accurately ripped
09 [e7ccfcd7] (014/102) Accurately ripped
10 [5b84f788] (014/096) Accurately ripped
Offsetted by 1331:
01 [5595c37f] (021/104) Accurately ripped
02 [41864373] (021/105) Accurately ripped
03 [712a1a4a] (021/105) Accurately ripped
04 [979c8be0] (021/105) Accurately ripped
05 [d6d02d15] (021/105) Accurately ripped
06 [1aa03439] (021/104) Accurately ripped
07 [cec2ea09] (020/102) Accurately ripped
08 [eec0e344] (021/103) Accurately ripped
09 [e7da1c5a] (021/102) Accurately ripped
10 [04fcc99f] (020/096) Accurately ripped
Offsetted by 2012:
01 [3b48e377] (006/104) Accurately ripped
02 [b28b1991] (006/105) Accurately ripped
03 [02fb56b4] (006/105) Accurately ripped
04 [b0178b86] (006/105) Accurately ripped
05 [124c6217] (006/105) Accurately ripped
06 [fd8fcf87] (006/104) Accurately ripped
07 [be6f423e] (006/102) Accurately ripped
08 [d6990814] (006/103) Accurately ripped
09 [5b406f79] (006/102) Accurately ripped
10 [cea19ef4] (005/096) Accurately ripped
Offsetted by -348:
01 [51927862] (000/104) No match (V2 was not tested)
02 [72bf56b6] (000/105) No match (V2 was not tested)
03 [8fb45989] (000/105) No match (V2 was not tested)
04 [59b4d6f9] (000/105) No match (V2 was not tested)
05 [472500a5] (000/105) No match (V2 was not tested)
06 [96a7640d] (000/104) No match (V2 was not tested)
07 [aa98eb48] (000/102) No match (V2 was not tested)
08 [4e9fb5c9] (000/103) No match (V2 was not tested)
09 [badf8e01] (000/102) No match (V2 was not tested)
10 [bd86557e] (000/096) No match (V2 was not tested)
Offsetted by -12:
01 [249b1a33] (000/104) No match (V2 was not tested)
02 [a8d2a0c4] (000/105) No match (V2 was not tested)
03 [15613760] (000/105) No match (V2 was not tested)
04 [8d08b719] (000/105) No match (V2 was not tested)
05 [e7ae6205] (000/105) No match (V2 was not tested)
06 [53651343] (000/104) No match (V2 was not tested)
07 [68efb779] (000/102) No match (V2 was not tested)
08 [1dcfda9f] (000/103) No match (V2 was not tested)
09 [c25e820d] (000/102) No match (V2 was not tested)
10 [91a0b06a] (000/096) No match (V2 was not tested)
Offsetted by 1337:
01 [08038eba] (000/104) No match (V2 was not tested)
02 [015e923e] (000/105) No match (V2 was not tested)
03 [513e6dd2] (000/105) No match (V2 was not tested)
04 [d4e303e7] (000/105) No match (V2 was not tested)
05 [b3a01463] (000/105) No match (V2 was not tested)
06 [3f633466] (000/104) No match (V2 was not tested)
07 [b201d664] (000/102) No match (V2 was not tested)
08 [a6c840dc] (000/103) No match (V2 was not tested)
09 [a3f1b81e] (000/102) No match (V2 was not tested)
10 [70d868f3] (000/096) No match (V2 was not tested)

Track Peak [ CRC32 ] [W/O NULL] [ LOG ]
– 97,8 [C8409ACE] [6D89EF04] CRC32
01 97,7 [F620A2BE] [2A86A91D]
02 97,7 [1AB4C101] [CF7A9FDC]
03 97,7 [9AF137C7] [5E6EC196]
04 97,7 [84A91DCD] [D5511D16]
05 97,7 [2E147A75] [60C73F45]
06 97,8 [779DD759] [1184F55A]
07 97,8 [8B1F8D62] [66057CD1]
08 97,7 [0556A49A] [28611D0D]
09 97,7 [7F792CBC] [264F92CA]
10 97,7 [3E251D21] [4D80D5E5]


Rush - All The World's A Stage (1976) Repost

All thanks go to Ginger Devil

Rush or Rush in my Blog

Download Rush - All The World's A Stage (1976):