Subcategories

Rush: Collection (1974 - 2012) [Vinyl Rip 16/44 & mp3-320]

Posted By: v3122
Rush: Collection (1974 - 2012) [Vinyl Rip 16/44 & mp3-320]

John Hackett - Another Life (2015)
10 x Vinyl Rip 16/44 | Flac(Image + Cue) > 2929 Mb
MP3 CBR 320Kbps > 1099 Mb | Artwork(jpg) Included
Progressive Rock

Rush is a Canadian rock band composed of Geddy Lee (bass, lead vocals, keyboards), Alex Lifeson (guitars, backing vocals) and Neil Peart (drums, percussion, lyrics). Forming in 1968, the band went through several configurations until arriving at its current line-up when Peart replaced original drummer John Rutsey in July 1974, two weeks before the group's first United States tour.

Rush is known for its musicianship, complex compositions, and eclectic lyrical motifs drawing heavily on science fiction, fantasy, and philosophy. The band's musical style has changed several times over the years, from a blues-inspired hard rock beginning, later moving into progressive rock, and including a period marked by heavy use of synthesizers. In the early 1990s, Rush returned to a guitar-driven hard rock sound, which has continued to the present.

According to the RIAA, Rush ranks 86th with sales of 25 million units in the U.S. Although total worldwide album sales are not calculated by any single entity, several industry sources estimated Rush's total worldwide album sales at over 65 million units as of 2017. The group has been awarded 24 gold, 14 platinum, and 3 multi-platinum albums.

Rush has received nominations for seven Grammy Awards. The band has won several Juno Awards, won an International Achievement Award at the 2009 SOCAN Awards, was inducted into the Canadian Music Hall of Fame in 1994 and into the Rock and Roll Hall of Fame in 2013. Over their careers, the members of Rush have been acknowledged as some of the most proficient players on their respective instruments, with each band member winning numerous awards in magazine readers' polls. Rush announced plans to cease large-scale touring at the end of 2015…

~ wiki
Rush: Collection (1974 - 2012) [Vinyl Rip 16/44 & mp3-320]


Rush: Collection (1974 - 2012):

Rush: Collection (1974 - 2012) [Vinyl Rip 16/44 & mp3-320]

Tracklist VNL01 - Fly By Night 1975:
Mercury, SRM-1-1079

01. Anthem
02. Best I Can
03. Beneath, Between And Behind
04. By-Tor And The Snow Dog
05. Fly By Night
06. Making Memories
07. Rivendell
08. In The End

foobar2000 1.2.9 / Dynamic Range Meter 1.1.1
log date: 2017-12-19 02:58:42

––––––––––––––––––––––––––––––––––––––––
Analyzed: Rush / 2112 (Packgrog 2012) (24/96)
––––––––––––––––––––––––––––––––––––––––

DR Peak RMS Duration Track
––––––––––––––––––––––––––––––––––––––––
DR13 -0.25 dB -16.69 dB 20:33 01-2112
DR13 -1.65 dB -16.42 dB 3:35 02-A Passage to Bangkok
DR13 -2.68 dB -17.54 dB 3:19 03-The Twilight Zone
DR13 -1.77 dB -17.74 dB 3:52 04-Lessons
DR12 -4.11 dB -20.16 dB 3:35 05-Tears
DR12 -2.82 dB -16.98 dB 4:00 06-Something for Nothing
––––––––––––––––––––––––––––––––––––––––

Number of tracks: 6
Official DR value: DR12

Samplerate: 44100 Hz
Channels: 2
Bits per sample: 16
Bitrate: 847 kbps
Codec: FLAC
================================================================================



Rush: Collection (1974 - 2012) [Vinyl Rip 16/44 & mp3-320]

Tracklist VNL02 - 2112 1976:
Mercury, SRM-1-1023

01. 2112
02. A Passage to Bangkok
03. The Twilight Zone
04. Lessons
05. Tears
06. Something for Nothing

foobar2000 1.2.9 / Dynamic Range Meter 1.1.1
log date: 2017-12-19 02:58:25

––––––––––––––––––––––––––––––––––––––––
Analyzed: Rush / Fly By Night
––––––––––––––––––––––––––––––––––––––––

DR Peak RMS Duration Track
––––––––––––––––––––––––––––––––––––––––
DR14 -0.70 dB -16.45 dB 4:25 01-Anthem
DR14 -2.26 dB -17.69 dB 3:28 02-Best I Can
DR13 -1.73 dB -17.37 dB 3:04 03-Beneath, Between And Behind
DR14 -2.95 dB -20.18 dB 8:54 04-By-Tor And The Snow Dog
DR14 -0.70 dB -16.27 dB 3:22 05-Fly By Night
DR14 -0.88 dB -17.42 dB 3:01 06-Making Memories
DR14 -7.60 dB -26.16 dB 4:59 07-Rivendell
DR14 -1.24 dB -18.61 dB 6:48 08-In The End
––––––––––––––––––––––––––––––––––––––––

Number of tracks: 8
Official DR value: DR14

Samplerate: 44100 Hz
Channels: 2
Bits per sample: 16
Bitrate: 759 kbps
Codec: FLAC
================================================================================



Rush: Collection (1974 - 2012) [Vinyl Rip 16/44 & mp3-320]

Tracklist VNL03 - A Farewell To Kings 1977:
Mercury, SRM-1-1184

01. A Farewell To Kings
02. Xanadu
03. Closer To The Heart
04. Cinderella Man
05. Madrigal
06. Cygnus X-1

foobar2000 1.2.9 / Dynamic Range Meter 1.1.1
log date: 2017-12-19 02:58:58

––––––––––––––––––––––––––––––––––––––––
Analyzed: Rush / A Farewell To Kings
––––––––––––––––––––––––––––––––––––––––

DR Peak RMS Duration Track
––––––––––––––––––––––––––––––––––––––––
DR12 -1.95 dB -17.62 dB 5:53 01-A Farewell To Kings
DR12 -0.54 dB -16.85 dB 11:10 02-Xanadu
DR13 -2.61 dB -21.68 dB 2:55 03-Closer To The Heart
DR14 -2.40 dB -19.28 dB 4:21 04-Cinderella Man
DR14 -4.97 dB -23.85 dB 2:37 05-Madrigal
DR12 -0.97 dB -17.81 dB 10:25 06-Cygnus X-1
––––––––––––––––––––––––––––––––––––––––

Number of tracks: 6
Official DR value: DR13

Samplerate: 44100 Hz
Channels: 2
Bits per sample: 16
Bitrate: 798 kbps
Codec: FLAC
================================================================================



Rush: Collection (1974 - 2012) [Vinyl Rip 16/44 & mp3-320]

Tracklist VNL04 - Hemispheres 1978:
Mercury, 9100 059

01. Cygnus X-1 Book II
02. Circumstances
03. The Trees
04. La Villa Strangiato

foobar2000 1.2.9 / Dynamic Range Meter 1.1.1
log date: 2017-12-19 02:59:13

––––––––––––––––––––––––––––––––––––––––
Analyzed: Rush / Hemispheres (UK)
––––––––––––––––––––––––––––––––––––––––

DR Peak RMS Duration Track
––––––––––––––––––––––––––––––––––––––––
DR13 -0.83 dB -17.51 dB 18:07 01-Cygnus X-1 Book II
DR13 -1.08 dB -16.46 dB 3:43 02-Circumstances
DR12 -1.54 dB -18.12 dB 4:45 03-The Trees
DR12 -1.55 dB -17.74 dB 9:37 04-La Villa Strangiato
––––––––––––––––––––––––––––––––––––––––

Number of tracks: 4
Official DR value: DR13

Samplerate: 44100 Hz
Channels: 2
Bits per sample: 16
Bitrate: 824 kbps
Codec: FLAC
================================================================================



Rush: Collection (1974 - 2012) [Vinyl Rip 16/44 & mp3-320]

Tracklist VNL05 - Moving Pictures 1981:
Mercury, 6337 160

01-Tom Sawyer
02-Red Barchetta
03-YYZ
04-Limelight
05-The Camera Eye
06-Witch Hunt
07-Vital Signs

foobar2000 1.2.9 / Dynamic Range Meter 1.1.1
log date: 2017-12-19 02:59:30

––––––––––––––––––––––––––––––––––––––––
Analyzed: Rush / Moving Pictures
––––––––––––––––––––––––––––––––––––––––

DR Peak RMS Duration Track
––––––––––––––––––––––––––––––––––––––––
DR14 -0.70 dB -16.07 dB 4:36 01-Tom Sawyer
DR14 -0.81 dB -16.89 dB 6:12 02-Red Barchetta
DR14 -0.69 dB -17.02 dB 4:27 03-YYZ
DR13 -1.29 dB -16.23 dB 4:22 04-Limelight
DR14 -0.88 dB -17.58 dB 11:00 05-The Camera Eye
DR12 -0.77 dB -17.76 dB 4:46 06-Witch Hunt
DR13 -1.66 dB -17.47 dB 4:50 07-Vital Signs
––––––––––––––––––––––––––––––––––––––––

Number of tracks: 7
Official DR value: DR13

Samplerate: 44100 Hz
Channels: 2
Bits per sample: 16
Bitrate: 857 kbps
Codec: FLAC
================================================================================



Rush: Collection (1974 - 2012) [Vinyl Rip 16/44 & mp3-320]

Tracklist VNL06 - Signals 1982:
Mercury, SRM-1-4063

01. Subdivisions
02. The Analog Kid
03. Chemistry
04. Digital Man
05. The Weapon
06. New World Man
07. Losing It
08. Countdown

foobar2000 1.2.9 / Dynamic Range Meter 1.1.1
log date: 2017-12-19 02:59:44

––––––––––––––––––––––––––––––––––––––––
Analyzed: Rush / Signals
––––––––––––––––––––––––––––––––––––––––

DR Peak RMS Duration Track
––––––––––––––––––––––––––––––––––––––––
DR13 -0.56 dB -15.01 dB 5:38 01-Subdivisions
DR13 -0.68 dB -15.25 dB 4:50 02-The Analog Kid
DR13 -2.36 dB -17.42 dB 4:59 03-Chemistry
DR13 -1.09 dB -17.32 dB 6:28 04-Digital Man
DR13 -0.74 dB -16.17 dB 6:30 05-The Weapon
DR13 -0.72 dB -16.05 dB 3:49 06-New World Man
DR14 -0.69 dB -17.32 dB 4:57 07-Losing It
DR12 -0.90 dB -15.74 dB 5:53 08-Countdown
––––––––––––––––––––––––––––––––––––––––

Number of tracks: 8
Official DR value: DR13

Samplerate: 44100 Hz
Channels: 2
Bits per sample: 16
Bitrate: 889 kbps
Codec: FLAC
================================================================================



Rush: Collection (1974 - 2012) [Vinyl Rip 16/44 & mp3-320]

Tracklist VNL07 - Hold Your Fire 1987:
Mercury, 832-464-1

1. "Force Ten" 4:31
2. "Time Stand Still" 5:09
3. "Open Secrets" 5:38
4. "Second Nature" 4:36
5. "Prime Mover" 5:19
6. "Lock and Key" 5:09
7. "Mission" 5:16
8. "Turn the Page" 4:55
9. "Tai Shan" 4:15
10. "High Water" 5:33

foobar2000 1.2.9 / Dynamic Range Meter 1.1.1
log date: 2017-12-19 03:00:02

––––––––––––––––––––––––––––––––––––––––
Analyzed: Rush / Hold Your Fire
––––––––––––––––––––––––––––––––––––––––

DR Peak RMS Duration Track
––––––––––––––––––––––––––––––––––––––––
DR13 0.00 dB -16.30 dB 4:34 01-Force Ten
DR13 -0.25 dB -15.54 dB 5:10 02-Time Stand Still
DR12 0.00 dB -14.94 dB 5:39 03-Open Secrets
DR14 -0.13 dB -16.02 dB 4:38 04-Second Nature
DR13 -0.86 dB -16.06 dB 5:20 05-Prime Mover
DR13 -0.28 dB -15.28 dB 5:11 06-Lock And Key
DR14 -0.02 dB -16.53 dB 5:18 07-Mission
DR13 -0.09 dB -15.43 dB 4:56 08-Turn The Page
DR13 -2.73 dB -17.54 dB 4:17 09-Tai Shan
DR13 0.00 dB -15.76 dB 5:35 10-High Water
––––––––––––––––––––––––––––––––––––––––

Number of tracks: 10
Official DR value: DR13

Samplerate: 44100 Hz
Channels: 2
Bits per sample: 16
Bitrate: 908 kbps
Codec: FLAC
================================================================================



Rush: Collection (1974 - 2012) [Vinyl Rip 16/44 & mp3-320]

Tracklist VNL08 - Presto 1989:
Atlantic, 82040-1

01. Show Don't Tell
02. Chain Lightning
03. The Pass
04. War Paint
05. Scars
06. Presto
07. Superconductor
08. Anagram (for Mongo)
09. Red Tide
10. Hand Over Fist
11. Available Light

foobar2000 1.2.9 / Dynamic Range Meter 1.1.1
log date: 2017-12-19 03:00:19

––––––––––––––––––––––––––––––––––––––––
Analyzed: Rush / Presto
––––––––––––––––––––––––––––––––––––––––

DR Peak RMS Duration Track
––––––––––––––––––––––––––––––––––––––––
DR15 -1.36 dB -18.85 dB 5:01 01-Show Don't Tell
DR16 -1.34 dB -19.38 dB 4:34 02-Chain Lightning
DR14 -1.82 dB -19.43 dB 4:51 03-The Pass
DR15 -0.68 dB -17.70 dB 5:25 04-War Paint
DR16 -1.69 dB -19.78 dB 4:07 05-Scars
DR15 -0.79 dB -19.05 dB 5:47 06-Presto
DR15 -0.69 dB -17.31 dB 4:48 07-Superconductor
DR16 -0.73 dB -18.67 dB 4:00 08-Anagram (for Mongo)
DR14 -1.30 dB -18.60 dB 4:31 09-Red Tide
DR16 -0.73 dB -18.72 dB 4:11 10-Hand Over Fist
DR15 -0.70 dB -18.85 dB 5:03 11-Available Light
––––––––––––––––––––––––––––––––––––––––

Number of tracks: 11
Official DR value: DR15

Samplerate: 44100 Hz
Channels: 2
Bits per sample: 16
Bitrate: 880 kbps
Codec: FLAC
================================================================================



Rush: Collection (1974 - 2012) [Vinyl Rip 16/44 & mp3-320]

Tracklist VNL09 - Roll The Bones 1991:
Atlantic, 7567-82293-1

01. Dreamline
02. Bravado
03. Roll The Bones
04. Face Up
05. Where's My Thing?
06. The Big Wheel
07. Heresy
08. Ghost Of A Chance
09. Neurotica
10. You Bet Your Life

foobar2000 1.2.9 / Dynamic Range Meter 1.1.1
log date: 2017-12-19 03:00:34

––––––––––––––––––––––––––––––––––––––––
Analyzed: Rush / Roll The Bones (German)
––––––––––––––––––––––––––––––––––––––––

DR Peak RMS Duration Track
––––––––––––––––––––––––––––––––––––––––
DR14 -1.33 dB -18.30 dB 4:39 01-Dreamline
DR15 -0.88 dB -18.47 dB 4:35 02-Bravado
DR15 -1.54 dB -18.91 dB 5:31 03-Roll The Bones
DR15 -1.95 dB -18.90 dB 3:54 04-Face Up
DR17 -1.83 dB -20.50 dB 3:50 05-Where's My Thing?
DR16 -1.61 dB -19.54 dB 5:15 06-The Big Wheel
DR16 -1.57 dB -19.77 dB 5:24 07-Heresy
DR15 -1.52 dB -19.73 dB 5:19 08-Ghost Of A Chance
DR15 -1.79 dB -18.60 dB 4:40 09-Neurotica
DR15 -0.70 dB -18.12 dB 5:00 10-You Bet Your Life
––––––––––––––––––––––––––––––––––––––––

Number of tracks: 10
Official DR value: DR15

Samplerate: 44100 Hz
Channels: 2
Bits per sample: 16
Bitrate: 888 kbps
Codec: FLAC
================================================================================



Rush: Collection (1974 - 2012) [Vinyl Rip 16/44 & mp3-320]

Tracklist VNL10 - Clockwork Angels 2012:
Anthem, 1686-176561

01. Caravan
02. BU2B
03. Clockwork Angels
04. The Anarchist
05. Carnies
06. Halo Effect
07. Seven Citites Of Gold
08. The Wreckers
09. Headlong Flight
10. BU2B2
11. Wish Them Well
12. The Garden

foobar2000 1.2.9 / Dynamic Range Meter 1.1.1
log date: 2017-12-19 03:00:53

––––––––––––––––––––––––––––––––––––––––
Analyzed: Rush / Clockwork Angels
––––––––––––––––––––––––––––––––––––––––

DR Peak RMS Duration Track
––––––––––––––––––––––––––––––––––––––––
DR12 -0.82 dB -14.57 dB 5:39 01-Caravan
DR12 -0.83 dB -14.98 dB 5:10 02-BU2B
DR12 -1.51 dB -15.43 dB 7:32 03-Clockwork Angels
DR13 -0.88 dB -15.71 dB 6:51 04-The Anarchist
DR12 -2.67 dB -16.13 dB 4:50 05-Carnies
DR12 -2.21 dB -17.93 dB 3:18 06-Halo Effect
DR11 -0.71 dB -14.15 dB 6:34 07-Seven Citites Of Gold
DR11 -0.65 dB -13.45 dB 5:01 08-The Wreckers
DR11 -0.56 dB -13.51 dB 7:20 09-Headlong Flight
DR11 -5.00 dB -20.96 dB 1:29 10-BU2B2
DR12 -0.65 dB -14.01 dB 5:25 11-Wish Them Well
DR11 -0.79 dB -15.05 dB 6:59 12-The Garden
––––––––––––––––––––––––––––––––––––––––

Number of tracks: 12
Official DR value: DR12

Samplerate: 44100 Hz
Channels: 2
Bits per sample: 16
Bitrate: 896 kbps
Codec: FLAC
================================================================================




Original ripper: otto1961
Original format: 24/96
Vinyl Condition: NM

Vinyl Cleaning Process
•3 Liter Ultrasonic Cleaner (Tap water with Sporicidin) on custom rotating assembly at 1 RPM for one hour
•Vacuum off with Nitty Gritty
•AIVS Premium Record Cleaner Formula No. 15 applied with Mofi Brush while rotating on VPI 16.5
•McCulloch MC-1275 Heavy-Duty Steam Cleaner applied with Mofi Brush while rotating on VPI 16.5
•Vacuum off with VPI 16.5
•L’Art du Son Record Cleaning Fluid applied with VPI Bristle brush
•Vacuum off with VPI 16.5
•Whole Foods Deionized Water applied with Mofi Brush (Separate from AIVS Mofi Brush)
•Vacuum off with VPI 16.5
•Flip record and repeat
•Place record on Plate Demgnetizer

Turntable Equipment Profile
•VPI Scoutmaster with inverted bearing and 300 RPM motor
•Trans-Fi ResoMat
•Gingko Cloud 11 Vibration Control Platform
•VPI Synchronous Drive System turntable motor speed controller and line isolator
•Trans-Fi Audio Terminator T3Pro tangential tracking air bearing tonearm with Tomahawk Armwand
•Soundsmith Sussorro Paua

Analog/Digital Convertion
Phono Stage Profile
•Musical Surroundings Phonomena Phono Preamplifier
•Musical Surroundings Battery Power Supply

•RME ADI-2 =< ADAT =< E-MU 1212M
•Adobe Audition 3.01 running on Windows XP in a Shuttle PC form factor

Downsampled to 16/44


All thanks go to the original releaser

Scorpions: Collection (1974 - 2015) [Vinyl Rip 16/44 & mp3-320]
Pink Floyd - Echoes: The Best Of Pink Floyd (2001) [Vinyl Rip 16/44]
Alice Cooper - Paranormal (2017) [Vinyl Rip 16/44 & mp3-320]
Manfred Mann's Earth Band: Collection (1967 - 2014) [Vinyl Rip 16/44 & mp3-320]



AC/DC: Discography (1975 - 2014) [Vinyl Rip 16/44 & mp3-320]
Rainbow: Discography (1975 - 1986) [Vinyl Rip 16/44 & mp3-320]
Janis Joplin – The Classic LP Collection (2011) [Vinyl Rip 16/44 & mp3-320]
Donovan: Collection (1965 - 1971) [Vinyl Rip 16/44 & mp3-320]
Amanda Lear: Collection (1978 - 1986) [Vinyl Rip 16/44 & mp3-320]
The Byrds - The Byrds' Greatest Hits (1967) [Vinyl Rip 16/44 & mp3-320]
Space & Didier Marouani: Collection (1977 - 1987) [Vinyl Rip 16/44 & mp3-320]
The Rolling Stones - Double Deluxe (1970) [Vinyl Rip 16/44 & mp3-320]
Rod Stewart: Collection (1969 - 1988) [Vinyl Rip 16/44 & mp3-320]
Rick Wakeman: Collection (1973 - 1981) [Vinyl Rip 16/44 & mp3-320]
Kraftwerk: Collection (1974 - 1991) [Vinyl Rip 16/44 & mp3-320]
Jethro Tull - 20 Years Of J. T. The Definitive Collection (1988) [Vinyl Rip 16/44 & mp3-320]
Testament: Discography (1987-2016) [Vinyl Rip 16/44 & mp3-320]
Roger Waters: Vinyl Collection (1970 - 1992) [Vinyl Rip 16/44 & mp3-320]
Rare Earth: Collection (1969 - 1978) [Vinyl Rip 16/44 & mp3-320]
David Gilmour - Rattle That Lock (2015) [Vinyl Rip 16/44 & mp3-320]
Tarja: Collection (2007 - 2016) [Vinyl Rip 16/44 & mp3-320]
Depeche Mode: Collection (1981 - 2013) [Vinyl Rip 16/44 & mp3-320]
Pink Floyd: Remastered Collection (1967 - 2016) [Vinyl Rip 16/44 & mp3-320]
Sade: Discography (1984 - 2010) [Vinyl Rip 16/44 & MP3-320]
Deep Purple: Collection (1968 - 2017) [Vinyl Rip 16/44 & mp3-320]
Queen: Collection (1973 - 1995) [Vinyl Rip 16/44 & MP3-320]
The Cars: Collection (1978 - 1987) [Vinyl Rip 16/44 & mp3-320]
Metallica: Discography (1983 - 2016) [Vinyl Rip 16/44 & mp3-320]
Bon Jovi - The Albums (2017) [Vinyl Rip 16/44 & mp3-320, Limited Edition Box set]
The Doors: Collection (1967 - 1971) [Vinyl Rip 16/44 & mp3-320]
Black Sabbath: Collection (1970 - 2013) [Vinyl Rip 16/44 & mp3-320]
The Beatles: Discography (1963 - 1988) [Vinyl Rip 16/44 & mp3-320]
Joe Cocker: Collection (1969 - 1991) [Vinyl Rip 16/44 & mp3-320]
Frank Zappa: Collection (1969 - 1981) [Vinyl Rip 16/44 & mp3-320]
Ten Years After: Collection (1967 - 1974) [Vinyl Rip 16/44 & mp3-320]
Dire Straits: Discography (1978 - 1991) [Vinyl Rip 16/44 & mp3-320]
Bonnie Tyler: Collection (1977 - 1986) [Vinyl Rip 16/44 & mp3-320]
The Beatles: Stereo Vinyl Box Set (2012) [Vinyl Rip 16/44 & mp3-320]
Wolfgang Amadeus Mozart - Die Violin Konzerte (1968) [Vinyl Rip 16/44 & mp3-320]
Eagles - The Studio Albums 1972-1979 (2013) [Vinyl Rip 16/44 & mp3-320]
Pink Floyd: Discography (1967 - 2014) [Vinyl Rip 16/44 & mp3-320]
Led Zeppelin: Discography (1969 - 1982) [Vinyl Rip 16/44 & mp3-320]
Manowar: Collection (1982 - 2012) [Vinyl Rip 16/44 & mp3-320]
A-HA: Collection (1985-2015) [Vinyl Rip 16/44 & mp3-320]
Decca, Wiener Philharmoniker - 6 Classic Analogue LPs (2014) [Vinyl Rip 16/44]
Beethoven - Chicago Symphony Orchestra / Sir Georg Solti ‎– The Nine Symphonies (1975) [Vinyl Rip 16/44 & mp3-320]

Rush or Rush in my Blog

Download Rush: Collection (1974 - 2012):