Subcategories

Rush - Sector Two (2011) [5CD + DVD Box Set] Repost

Posted By: v3122
Rush - Sector Two (2011) [5CD + DVD Box Set] Repost

Rush - Sector Two (2011)
EAC | Flac(Image) + Cue + Log & MP3 CBR 320Kbps
Mercury, 8015889-00 | ~ 1578 or 686 Mb | Scans(png) -> 820 Mb
DVD5: NTSC 16:9 (720x480) VBR | AC3 2 & 6 ch / MPL 2.0 & 5.1 -> 3.89 Gb
Progressive Rock

Neatly chopping up the band’s career into three segments, Rush’s Sector series of box sets breaks the Canadian prog rockers' early musical legacy into easy-to-digest morsels. On Sector 2, we find the band transitioning from its early developmental period into mainstream success with the albums A Farewell to Kings, Hemispheres, Permanent Waves, Moving Pictures, and the live album Exit…Stage Left. This period of Rush’s history finds the band gaining acceptance from a wider audience with songs like “Tom Sawyer,” “Closer to the Heart,” and “The Spirit of Radio” while still managing to push its sound into increasingly progressive territories with more complex arrangements, new styles of music, and a wider range of instruments. This remastered box set features these iconic records repackaged in scale replicas of the original vinyl LP jackets, and those interested in a new listening experience will want to check out the DVD-Audio version of A Farewell to Kings, which features both stereo and 5.1 Surround mixes of the album.

by Gregory Heaney, allmusic
Rush - Sector Two (2011):

Rush - Sector Two (2011) [5CD + DVD Box Set] Repost

Tracklist CD1 - 1977 - A Farewell To Kings:

01. A Farewell To Kings 05:56
02. Xanadu 11:09
03. Closer To The Heart 02:55
04. Cinderella Man 04:23
05. Madrigal 02:36
06. Cygnus X-1 (Book One - The Voyage) 10:25

Exact Audio Copy V1.0 beta 3 from 29. August 2011

EAC extraction logfile from 13. December 2011, 17:18

Rush / A Farewell To Kings

Used drive : HL-DT-STDVDRAM GSA-H60N Adapter: 2 ID: 0

Read mode : Secure
Utilize accurate stream : Yes
Defeat audio cache : Yes
Make use of C2 pointers : No

Read offset correction : 667
Overread into Lead-In and Lead-Out : No
Fill up missing offset samples with silence : Yes
Delete leading and trailing silent blocks : No
Null samples used in CRC calculations : Yes
Used interface : Native Win32 interface for Win NT & 2000

Used output format : Internal WAV Routines
Sample format : 44.100 Hz; 16 Bit; Stereo


TOC of the extracted CD

Track | Start | Length | Start sector | End sector
––––––––––––––––––––––––––––-
1 | 0:00.00 | 5:56.26 | 0 | 26725
2 | 5:56.26 | 11:09.36 | 26726 | 76936
3 | 17:05.62 | 2:55.40 | 76937 | 90101
4 | 20:01.27 | 4:23.21 | 90102 | 109847
5 | 24:24.48 | 2:36.00 | 109848 | 121547
6 | 27:00.48 | 10:25.38 | 121548 | 168460


Range status and errors

Selected range

Filename C:\Documents and Settings\Admin\Рабочий стол\ALLexxess\Rush\2011 Sector 2 (5CD + DVD Box Set Vinyl Replica Anthem Records)\1977 A Farewell To Kings CD + DVD Set\CD\Rush - A Farewell To Kings.wav

Peak level 99.4 %
Extraction speed 5.1 X
Range quality 99.9 %
Test CRC 27813E78
Copy CRC 27813E78
Copy OK

No errors occurred


AccurateRip summary

Track 1 accurately ripped (confidence 2) [8829DB99] (AR v1)
Track 2 accurately ripped (confidence 2) [DBF18764] (AR v1)
Track 3 accurately ripped (confidence 2) [FC700503] (AR v1)
Track 4 accurately ripped (confidence 2) [F0E467A8] (AR v1)
Track 5 accurately ripped (confidence 2) [1EAF0B99] (AR v1)
Track 6 accurately ripped (confidence 2) [CC6F2359] (AR v1)

All tracks accurately ripped

End of status report

==== Log checksum 665957C794D38D21FFB2E81E277157C19FA6B4A9D39A49173423552A04FC09C1 ====


[CUETools log; Date: 21.05.2018 14:53:20; Version: 2.1.5]
[CTDB TOCID: R1YnHGVRKbVi.o_n0eMbBshrPDc-] found.
Track | CTDB Status
1 | (150/152) Accurately ripped
2 | (150/152) Accurately ripped
3 | (149/152) Accurately ripped
4 | (151/152) Accurately ripped
5 | (151/152) Accurately ripped
6 | (151/152) Accurately ripped
[AccurateRip ID: 00090ed6-002f56db-3e08c606] found.
Track [ CRC | V2 ] Status
01 [8829db99|b5242a2d] (011+109/120) Accurately ripped
02 [dbf18764|bba7ef07] (011+110/121) Accurately ripped
03 [fc700503|33ce8f1c] (011+111/122) Accurately ripped
04 [f0e467a8|8ce0eb43] (011+111/122) Accurately ripped
05 [1eaf0b99|ebe60293] (011+111/122) Accurately ripped
06 [cc6f2359|4fe186e8] (011+109/120) Accurately ripped

Track Peak [ CRC32 ] [W/O NULL] [ LOG ]
– 99,4 [27813E78] [818B7065] CRC32
01 98,8 [7F0414B0] [7C953840]
02 99,4 [58CE1B51] [A4ECCBD0]
03 99,4 [1826096F] [78A6CE59]
04 99,4 [3F30C8EF] [77AD1339]
05 95,4 [1E3AECF4] [81BFCC53]
06 98,8 [4551BF51] [3FCA9FDF]


Rush - Sector Two (2011) [5CD + DVD Box Set] Repost

Tracklist CD2 - 1978 - Hemispheres:

01. Cygnus X-1 Book II: Hemispheres 18:08
I. Prelude
II. Apollo: Bringer Of Wisdom
III. Dionysus: Bringer Of Love
IV. Armageddon: The Battle Of Heart And Mind
V. Cygnus: Bringer Of Balance
VI. The Sphere: A Kind Of Dream
02. Circumstances 03:44
03. The Trees 04:44
04. La Villa Strangiato (An Exercise In Self-Indulgence) 09:35
I. Buenos Nochas, Mein Froinds!
II. To Sleep, Perchance To Dream…
III. Strangiato Theme
IV. A Lerxst In Wonderland
V. Monsters!
VI. The Ghost Of The Aragon
VII. Danforth And Pape
VIII. The Waltz Of The Shreves
IX. Never Turn Your Back On A Monster!
X. Monsters! (Reprise)
XI. Strangiato Theme (Reprise)
XII. A Farewell To Things

Exact Audio Copy V1.0 beta 3 from 29. August 2011

EAC extraction logfile from 13. December 2011, 20:14

Rush / Hemispheres

Used drive : HL-DT-STDVDRAM GSA-H60N Adapter: 2 ID: 0

Read mode : Secure
Utilize accurate stream : Yes
Defeat audio cache : Yes
Make use of C2 pointers : No

Read offset correction : 667
Overread into Lead-In and Lead-Out : No
Fill up missing offset samples with silence : Yes
Delete leading and trailing silent blocks : No
Null samples used in CRC calculations : Yes
Used interface : Native Win32 interface for Win NT & 2000

Used output format : Internal WAV Routines
Sample format : 44.100 Hz; 16 Bit; Stereo


TOC of the extracted CD

Track | Start | Length | Start sector | End sector
––––––––––––––––––––––––––––-
1 | 0:00.00 | 18:08.05 | 0 | 81604
2 | 18:08.05 | 3:44.64 | 81605 | 98468
3 | 21:52.69 | 4:44.66 | 98469 | 119834
4 | 26:37.60 | 9:35.02 | 119835 | 162961


Range status and errors

Selected range

Filename C:\Documents and Settings\Admin\Рабочий стол\ALLexxess\Rush\2011 Sector 2 (5CD + DVD Box Set Vinyl Replica Anthem Records)\1978 Hemispheres\Rush - Hemispheres.wav

Peak level 98.8 %
Extraction speed 5.2 X
Range quality 100.0 %
Test CRC 0A170E54
Copy CRC 0A170E54
Copy OK

No errors occurred


AccurateRip summary

Track 1 not present in database
Track 2 not present in database
Track 3 not present in database
Track 4 not present in database

None of the tracks are present in the AccurateRip database

End of status report

==== Log checksum CD96086E56F3AA7F9F0353096A3408B19FF6AC90194EC241148EBA11947071E6 ====


[CUETools log; Date: 21.05.2018 14:53:46; Version: 2.1.5]
[CTDB TOCID: c_fdq7JBBiTNyvq6xHzWEORP8po-] found.
Track | CTDB Status
1 | (155/155) Accurately ripped
2 | (155/155) Accurately ripped
3 | (155/155) Accurately ripped
4 | (155/155) Accurately ripped
[AccurateRip ID: 00071017-001abec0-2d087c04] found.
Track [ CRC | V2 ] Status
01 [13154dee|c191fed5] (010+114/124) Accurately ripped
02 [e03df006|d20cccb4] (010+114/124) Accurately ripped
03 [c98ce50f|ea93ca64] (010+114/124) Accurately ripped
04 [a46a747f|408bcedd] (010+114/124) Accurately ripped

Track Peak [ CRC32 ] [W/O NULL] [ LOG ]
– 98,8 [0A170E54] [9FDE3252] CRC32
01 98,8 [76FDBAFC] [3B4DF899]
02 98,8 [E7E207A9] [CCF8FED0]
03 98,8 [0F601092] [79B7BE2F]
04 98,8 [F2424EE4] [B27E8655]


Rush - Sector Two (2011) [5CD + DVD Box Set] Repost

Tracklist CD3 - 1980 - Permanent Waves:

01. The Spirit Of The Radio 04:58
02. Freewill 05:23
03. Jacob's Ladder 07:29
04. Entre Nous 04:37
05. Different Strings 03:50
06. Natural Science 09:16

Exact Audio Copy V1.0 beta 3 from 29. August 2011

EAC extraction logfile from 13. December 2011, 17:45

Rush / Permanent Waves

Used drive : HL-DT-STDVDRAM GSA-H60N Adapter: 2 ID: 0

Read mode : Secure
Utilize accurate stream : Yes
Defeat audio cache : Yes
Make use of C2 pointers : No

Read offset correction : 667
Overread into Lead-In and Lead-Out : No
Fill up missing offset samples with silence : Yes
Delete leading and trailing silent blocks : No
Null samples used in CRC calculations : Yes
Used interface : Native Win32 interface for Win NT & 2000

Used output format : Internal WAV Routines
Sample format : 44.100 Hz; 16 Bit; Stereo


TOC of the extracted CD

Track | Start | Length | Start sector | End sector
––––––––––––––––––––––––––––-
1 | 0:00.00 | 4:58.50 | 0 | 22399
2 | 4:58.50 | 5:23.45 | 22400 | 46669
3 | 10:22.20 | 7:29.22 | 46670 | 80366
4 | 17:51.42 | 4:37.23 | 80367 | 101164
5 | 22:28.65 | 3:50.31 | 101165 | 118445
6 | 26:19.21 | 9:16.44 | 118446 | 160189


Range status and errors

Selected range

Filename C:\Documents and Settings\Admin\Рабочий стол\ALLexxess\Rush\2011 Sector 2 (5CD + DVD Box Set Vinyl Replica Anthem Records)\1980 Permanent Waves\Rush - Permanent Waves.wav

Peak level 99.4 %
Extraction speed 5.2 X
Range quality 100.0 %
Test CRC 553FB8D8
Copy CRC 553FB8D8
Copy OK

No errors occurred


AccurateRip summary

Track 1 not present in database
Track 2 not present in database
Track 3 not present in database
Track 4 not present in database
Track 5 not present in database
Track 6 not present in database

None of the tracks are present in the AccurateRip database

End of status report

==== Log checksum A3A5C49A281B2C7DA774EAE3D36AD57CDC7752FD8D320D4978DF0E495488F937 ====


[CUETools log; Date: 21.05.2018 14:54:15; Version: 2.1.5]
[CTDB TOCID: eYj2ikVlF1zHdin04FWvyPkuiaw-] found.
Track | CTDB Status
1 | (151/152) Accurately ripped
2 | (151/152) Accurately ripped
3 | (151/152) Accurately ripped
4 | (151/152) Accurately ripped
5 | (151/152) Accurately ripped
6 | (150/152) Accurately ripped
[AccurateRip ID: 00081356-002b65ce-34085706] found.
Track [ CRC | V2 ] Status
01 [a3eec6bf|f5c71b7e] (008+114/122) Accurately ripped
02 [47635657|7abaed79] (008+114/122) Accurately ripped
03 [a10dc2a6|753b9906] (008+113/121) Accurately ripped
04 [cb4e1bf8|58b8e54c] (008+112/120) Accurately ripped
05 [4c2e1779|9b677556] (007+113/120) Accurately ripped
06 [9408d851|e7553ce6] (008+113/121) Accurately ripped

Track Peak [ CRC32 ] [W/O NULL] [ LOG ]
– 99,4 [553FB8D8] [76B84D73] CRC32
01 99,4 [FC96D889] [B788BD10]
02 99,4 [CF09764C] [0611E076]
03 99,4 [36234171] [07EBB0BB]
04 96,0 [5D26D2E0] [DD5DB0C5]
05 99,4 [32CBD50A] [0CDEF52A]
06 99,4 [718C12AA] [C5918E67]


Rush - Sector Two (2011) [5CD + DVD Box Set] Repost

Tracklist CD4 - 1981 - Moving Pictures:

01. Tom Sawyer 04:36
02. Red Barchetta 06:10
03. YYZ 04:25
04. Limelight 04:19
05. The Camera Eye 10:58
06. Witch Hunt (Part III Of 'Fear') 04:45
07. Vital Signs 04:46

Exact Audio Copy V1.0 beta 3 from 29. August 2011

EAC extraction logfile from 13. December 2011, 19:39

Rush / Moving Pictures

Used drive : HL-DT-STDVDRAM GSA-H60N Adapter: 2 ID: 0

Read mode : Secure
Utilize accurate stream : Yes
Defeat audio cache : Yes
Make use of C2 pointers : No

Read offset correction : 667
Overread into Lead-In and Lead-Out : No
Fill up missing offset samples with silence : Yes
Delete leading and trailing silent blocks : No
Null samples used in CRC calculations : Yes
Used interface : Native Win32 interface for Win NT & 2000

Used output format : Internal WAV Routines
Sample format : 44.100 Hz; 16 Bit; Stereo


TOC of the extracted CD

Track | Start | Length | Start sector | End sector
––––––––––––––––––––––––––––-
1 | 0:00.00 | 4:36.66 | 0 | 20765
2 | 4:36.66 | 6:10.32 | 20766 | 48547
3 | 10:47.23 | 4:25.63 | 48548 | 68485
4 | 15:13.11 | 4:19.63 | 68486 | 87973
5 | 19:32.74 | 10:58.74 | 87974 | 137397
6 | 30:31.73 | 4:45.40 | 137398 | 158812
7 | 35:17.38 | 4:46.17 | 158813 | 180279


Range status and errors

Selected range

Filename C:\Documents and Settings\Admin\Рабочий стол\ALLexxess\Rush\2011 Sector 2 (5CD + DVD Box Set Vinyl Replica Anthem Records)\1981 Moving Pictures\Rush - Moving Pictures.wav

Peak level 99.4 %
Extraction speed 5.4 X
Range quality 100.0 %
Test CRC 065D31BE
Copy CRC 065D31BE
Copy OK

No errors occurred


AccurateRip summary

Track 1 accurately ripped (confidence 30) [54B1BC51] (AR v2)
Track 2 accurately ripped (confidence 29) [17E76B36] (AR v2)
Track 3 accurately ripped (confidence 29) [B0827710] (AR v2)
Track 4 accurately ripped (confidence 29) [6246A462] (AR v2)
Track 5 accurately ripped (confidence 29) [43D7CE77] (AR v2)
Track 6 accurately ripped (confidence 29) [8997D044] (AR v2)
Track 7 accurately ripped (confidence 29) [9549D8CB] (AR v2)

All tracks accurately ripped

End of status report

==== Log checksum 7D728EACB5B688632E0A6242C82527D08175DD870365D4F9CE17EB02AD335F2A ====


[CUETools log; Date: 21.05.2018 14:54:43; Version: 2.1.5]
[CTDB TOCID: LIk3cMXIpBuPKt3oVn_A.Cw.ilY-] found.
Track | CTDB Status
1 | (339/342) Accurately ripped
2 | (339/342) Accurately ripped
3 | (339/342) Accurately ripped
4 | (339/342) Accurately ripped
5 | (338/342) Accurately ripped
6 | (339/342) Accurately ripped
7 | (340/342) Accurately ripped
[AccurateRip ID: 000ab739-00414c0e-5e096307] found.
Track [ CRC | V2 ] Status
01 [24a46adb|54b1bc51] (055+200/255) Accurately ripped
02 [3e4097cb|17e76b36] (054+200/254) Accurately ripped
03 [e0d75ea3|b0827710] (053+200/253) Accurately ripped
04 [38bf43b1|6246a462] (054+200/254) Accurately ripped
05 [2c7982f7|43d7ce77] (054+200/254) Accurately ripped
06 [14cac06a|8997d044] (055+200/255) Accurately ripped
07 [a3d87979|9549d8cb] (054+200/254) Accurately ripped

Track Peak [ CRC32 ] [W/O NULL] [ LOG ]
– 99,4 [065D31BE] [464AD568] CRC32
01 99,4 [4A434B08] [08BC51FC]
02 99,4 [4FB0A73D] [A5E0715F]
03 99,4 [D5951FD2] [F7546687]
04 99,4 [49125DA4] [FC7336AB]
05 99,4 [14656156] [768945DF]
06 99,4 [32B3310A] [5328DCA2]
07 99,4 [7D163CBD] [6DD5E13F]


Rush - Sector Two (2011) [5CD + DVD Box Set] Repost

Tracklist CD5 - 1981 - Exit…Stage Left:

01. The Spirit Of Radio 05:12
02. Red Barchetta 06:49
03. YYZ 07:45
04. A Passage To Bangkok 03:46
05. Closer To The Heart 03:08
06. Beneath, Between & Behind 02:35
07. Jacob's Ladder 08:47
08. Broon's Bane 01:36
09. The Trees 04:49
10. Xanadu 12:10
11. Freewill 05:32
12. Tom Sawyer 05:00
13. La Villa Strangiato 09:36

Exact Audio Copy V1.0 beta 3 from 29. August 2011

EAC extraction logfile from 13. December 2011, 21:13

Rush / Exit…Stage Left

Used drive : HL-DT-STDVDRAM GSA-H60N Adapter: 2 ID: 0

Read mode : Secure
Utilize accurate stream : Yes
Defeat audio cache : Yes
Make use of C2 pointers : No

Read offset correction : 667
Overread into Lead-In and Lead-Out : No
Fill up missing offset samples with silence : Yes
Delete leading and trailing silent blocks : No
Null samples used in CRC calculations : Yes
Used interface : Native Win32 interface for Win NT & 2000

Used output format : Internal WAV Routines
Sample format : 44.100 Hz; 16 Bit; Stereo


TOC of the extracted CD

Track | Start | Length | Start sector | End sector
––––––––––––––––––––––––––––-
1 | 0:00.00 | 5:12.64 | 0 | 23463
2 | 5:12.64 | 6:49.02 | 23464 | 54140
3 | 12:01.66 | 7:45.07 | 54141 | 89022
4 | 19:46.73 | 3:46.18 | 89023 | 105990
5 | 23:33.16 | 3:08.38 | 105991 | 120128
6 | 26:41.54 | 2:35.26 | 120129 | 131779
7 | 29:17.05 | 8:47.40 | 131780 | 171344
8 | 38:04.45 | 1:36.51 | 171345 | 178595
9 | 39:41.21 | 4:49.73 | 178596 | 200343
10 | 44:31.19 | 12:10.13 | 200344 | 255106
11 | 56:41.32 | 5:32.71 | 255107 | 280077
12 | 62:14.28 | 5:00.53 | 280078 | 302630
13 | 67:15.06 | 9:36.56 | 302631 | 345886


Range status and errors

Selected range

Filename C:\Documents and Settings\Admin\Рабочий стол\ALLexxess\Rush\2011 Sector 2 (5CD + DVD Box Set Vinyl Replica Anthem Records)\1981 Exit…Stage Left\Rush - Exit…Stage Left.wav

Peak level 99.4 %
Extraction speed 5.1 X
Range quality 99.9 %
Test CRC 580C3C4E
Copy CRC 580C3C4E
Copy OK

No errors occurred


AccurateRip summary

Track 1 not present in database
Track 2 not present in database
Track 3 not present in database
Track 4 not present in database
Track 5 not present in database
Track 6 not present in database
Track 7 not present in database
Track 8 not present in database
Track 9 not present in database
Track 10 not present in database
Track 11 not present in database
Track 12 not present in database
Track 13 not present in database

None of the tracks are present in the AccurateRip database

End of status report

==== Log checksum 0CD0884B353EF70736BF54AD5E0F535B89B6E9D2D780D43ECEA71BB2FA3B689C ====


[CUETools log; Date: 21.05.2018 14:55:15; Version: 2.1.5]
[CTDB TOCID: RtT.is7qwM_8.5dUrKRCL.4FCQk-] found.
Track | CTDB Status
1 | (139/139) Accurately ripped
2 | (139/139) Accurately ripped
3 | (139/139) Accurately ripped
4 | (139/139) Accurately ripped
5 | (139/139) Accurately ripped
6 | (139/139) Accurately ripped
7 | (138/139) Accurately ripped
8 | (139/139) Accurately ripped
9 | (139/139) Accurately ripped
10 | (138/139) Accurately ripped
11 | (138/139) Accurately ripped
12 | (138/139) Accurately ripped
13 | (135/139) Accurately ripped
[AccurateRip ID: 00227654-0159d2fb-b212030d] found.
Track [ CRC | V2 ] Status
01 [8be4670d|6877c7e5] (009+112/121) Accurately ripped
02 [8b41af8b|5688ab11] (009+112/121) Accurately ripped
03 [82b130fd|78181913] (009+112/121) Accurately ripped
04 [6ab96793|458ea6b0] (009+112/121) Accurately ripped
05 [a1d73f4b|293f0e1b] (009+112/121) Accurately ripped
06 [ddb523f1|7803e581] (009+111/120) Accurately ripped
07 [ddef33ac|13de1ca6] (009+111/120) Accurately ripped
08 [3aa4ec05|b627c1cd] (009+113/122) Accurately ripped
09 [3c2d4390|9b5d3d77] (009+112/121) Accurately ripped
10 [6c9b212a|2a0c9d8f] (009+111/120) Accurately ripped
11 [9e78bf9f|83544cb2] (009+111/120) Accurately ripped
12 [18014c69|49d025db] (009+111/120) Accurately ripped
13 [54eae23f|f2f63944] (009+105/114) Accurately ripped

Track Peak [ CRC32 ] [W/O NULL] [ LOG ]
– 99,4 [580C3C4E] [5544C93D] CRC32
01 99,4 [34107DA1] [A9B9A087]
02 99,4 [7C22EBDA] [D9526DF6]
03 99,4 [2CE77126] [854648B0]
04 99,4 [2EE147B0] [58C70B78]
05 99,4 [BF517F1B] [0538884F]
06 99,4 [6BC8480B] [F488F567]
07 99,4 [FEB63B92] [6E7325B8]
08 63,7 [69DCC779] [ABC1A1C4]
09 99,4 [8C0B5521] [D67F7335]
10 99,4 [BA454861] [A43B797D]
11 99,4 [6462FD42] [CC4506DD]
12 99,4 [5B3BE2A0] [8B112B18]
13 99,4 [17330039] [6276DBE8]


Rush - Sector Two (2011) [5CD + DVD Box Set] Repost

Tracklist DVD - A Farewell Kings:

01. A Farewell To Kings
02. Xanadu
03. Closer To The Heart
04. Cinderella Man
05. Madrigal
06. Cygnus X-1 (Book One - The Voyage)

General
Complete name : W:\UP\Mix\Rush 2011 - Sector 2\DVD1. 1977 - A Farewell Kings\AUDIO_TS\ATS_01_0.BUP
File size : 6.00 KiB

General
Complete name : W:\UP\Mix\Rush 2011 - Sector 2\DVD1. 1977 - A Farewell Kings\AUDIO_TS\ATS_01_0.IFO
File size : 6.00 KiB

General
Complete name : W:\UP\Mix\Rush 2011 - Sector 2\DVD1. 1977 - A Farewell Kings\AUDIO_TS\ATS_01_1.AOB
Format : MPEG-PS
File size : 1 024 MiB
Duration : 21s 978ms
Overall bit rate mode : Variable
Overall bit rate : 391 Mbps

Audio
ID : 189 (0xBD)-161 (0xA1)
Format : MLP
Muxing mode : DVD-Video
Duration : 21s 978ms
Bit rate mode : Variable
Maximum bit rate : 9 600 Kbps
Channel(s) : 6 channels
Sampling rate : 96.0 KHz
Bit depth : 24 bits

General
Complete name : W:\UP\Mix\Rush 2011 - Sector 2\DVD1. 1977 - A Farewell Kings\AUDIO_TS\ATS_01_2.AOB
Format : MPEG-PS
File size : 1 024 MiB
Duration : 8mn 48s
Overall bit rate mode : Variable
Overall bit rate : 16.3 Mbps

Audio
ID : 189 (0xBD)-161 (0xA1)
Format : MLP
Muxing mode : DVD-Video
Duration : 8mn 48s
Bit rate mode : Variable
Maximum bit rate : 9 600 Kbps
Channel(s) : 6 channels
Sampling rate : 96.0 KHz
Bit depth : 24 bits

General
Complete name : W:\UP\Mix\Rush 2011 - Sector 2\DVD1. 1977 - A Farewell Kings\AUDIO_TS\ATS_01_3.AOB
Format : MPEG-PS
File size : 917 MiB
Overall bit rate mode : Variable

Audio
ID : 189 (0xBD)-161 (0xA1)
Format : MLP
Muxing mode : DVD-Video
Bit rate mode : Variable
Maximum bit rate : 9 600 Kbps
Channel(s) : 6 channels
Sampling rate : 96.0 KHz
Bit depth : 24 bits

General
Complete name : W:\UP\Mix\Rush 2011 - Sector 2\DVD1. 1977 - A Farewell Kings\AUDIO_TS\AUDIO_PP.IFO
File size : 128 KiB

General
Complete name : W:\UP\Mix\Rush 2011 - Sector 2\DVD1. 1977 - A Farewell Kings\AUDIO_TS\AUDIO_SV.BUP
File size : 4.00 KiB

General
Complete name : W:\UP\Mix\Rush 2011 - Sector 2\DVD1. 1977 - A Farewell Kings\AUDIO_TS\AUDIO_SV.IFO
File size : 4.00 KiB

General
Complete name : W:\UP\Mix\Rush 2011 - Sector 2\DVD1. 1977 - A Farewell Kings\AUDIO_TS\AUDIO_SV.VOB
Format : MPEG-PS
File size : 11.7 MiB
Duration : 33ms
Overall bit rate mode : Variable
Overall bit rate : 2 982 Mbps

Video
ID : 224 (0xE0)
Format : MPEG Video
Format version : Version 2
Format profile : Main@Main
Format settings, BVOP : No
Format settings, Matrix : Custom
Format settings, GOP : N=1
Duration : 33ms
Bit rate mode : Variable
Maximum bit rate : 4 587 Kbps
Width : 720 pixels
Height : 480 pixels
Display aspect ratio : 16:9
Frame rate : 29.970 fps
Standard : NTSC
Color space : YUV
Chroma subsampling : 4:2:0
Bit depth : 8 bits
Scan type : Progressive
Compression mode : Lossy
Color primaries : BT.601 NTSC
Transfer characteristics : BT.601
Matrix coefficients : BT.601

Text #1
ID : 189 (0xBD)-33 (0x21)
Format : RLE
Format/Info : Run-length encoding
Muxing mode : DVD-Video

Text #2
ID : 189 (0xBD)-35 (0x23)
Format : RLE
Format/Info : Run-length encoding
Muxing mode : DVD-Video

Menu

General
Complete name : W:\UP\Mix\Rush 2011 - Sector 2\DVD1. 1977 - A Farewell Kings\AUDIO_TS\AUDIO_TS.BUP
File size : 10.0 KiB

General
Complete name : W:\UP\Mix\Rush 2011 - Sector 2\DVD1. 1977 - A Farewell Kings\AUDIO_TS\AUDIO_TS.IFO
File size : 10.0 KiB

General
Complete name : W:\UP\Mix\Rush 2011 - Sector 2\DVD1. 1977 - A Farewell Kings\AUDIO_TS\AUDIO_TS.VOB
Format : MPEG-PS
File size : 269 MiB
Duration : 3s 248ms
Overall bit rate : 695 Mbps

Video
ID : 224 (0xE0)
Format : MPEG Video
Format version : Version 2
Format profile : Main@Main
Format settings, BVOP : Yes
Format settings, Matrix : Default
Format settings, GOP : Variable
Duration : 3s 248ms
Bit rate : 680 Mbps
Maximum bit rate : 8 000 Kbps
Width : 720 pixels
Height : 480 pixels
Display aspect ratio : 16:9
Frame rate : 29.970 fps
Standard : NTSC
Color space : YUV
Chroma subsampling : 4:2:0
Bit depth : 8 bits
Scan type : Progressive
Scan order : Bottom Field First
Compression mode : Lossy
Bits/(Pixel*Frame) : 65.607
Time code of first frame : 00:00:00:00
Time code source : Group of pictures header
Stream size : 262 MiB (97%)

Audio
ID : 189 (0xBD)-160 (0xA0)
Format : PCM
Format settings, Endianness : Big
Format settings, Sign : Signed
Muxing mode : DVD-Video
Duration : 3s 248ms
Bit rate mode : Constant
Bit rate : 1 536 Kbps
Channel(s) : 2 channels
Sampling rate : 48.0 KHz
Bit depth : 16 bits
Stream size : 609 KiB (0%)

Text #1
ID : 189 (0xBD)-32 (0x20)
Format : RLE
Format/Info : Run-length encoding
Muxing mode : DVD-Video

Text #2
ID : 189 (0xBD)-33 (0x21)
Format : RLE
Format/Info : Run-length encoding
Muxing mode : DVD-Video

Menu

General
Complete name : W:\UP\Mix\Rush 2011 - Sector 2\DVD1. 1977 - A Farewell Kings\VIDEO_TS\VIDEO_TS.BUP
Format : DVD Video
Format profile : Menu
File size : 12.0 KiB
Overall bit rate mode : Variable

Video
ID : 224 (0xE0)
Format : MPEG Video
Format version : Version 2
Bit rate mode : Variable
Width : 720 pixels
Height : 480 pixels
Display aspect ratio : 16:9
Frame rate : 29.970 fps
Standard : NTSC
Compression mode : Lossy

Text
Format : RLE
Format/Info : Run-length encoding
Bit depth : 2 bits

General
Complete name : W:\UP\Mix\Rush 2011 - Sector 2\DVD1. 1977 - A Farewell Kings\VIDEO_TS\VIDEO_TS.IFO
Format : DVD Video
Format profile : Menu
File size : 12.0 KiB
Overall bit rate mode : Variable

Video
ID : 224 (0xE0)
Format : MPEG Video
Format version : Version 2
Bit rate mode : Variable
Width : 720 pixels
Height : 480 pixels
Display aspect ratio : 16:9
Frame rate : 29.970 fps
Standard : NTSC
Compression mode : Lossy

Text
Format : RLE
Format/Info : Run-length encoding
Bit depth : 2 bits

General
Complete name : W:\UP\Mix\Rush 2011 - Sector 2\DVD1. 1977 - A Farewell Kings\VIDEO_TS\VIDEO_TS.VOB
Format : MPEG-PS
File size : 174 KiB
Duration : 33ms
Overall bit rate : 43.2 Mbps

Video
ID : 224 (0xE0)
Format : MPEG Video
Format version : Version 2
Format profile : Main@Main
Format settings, BVOP : No
Format settings, Matrix : Custom
Duration : 33ms
Maximum bit rate : 8 000 Kbps
Width : 720 pixels
Height : 480 pixels
Display aspect ratio : 16:9
Frame rate : 29.970 fps
Standard : NTSC
Color space : YUV
Chroma subsampling : 4:2:0
Bit depth : 8 bits
Scan type : Progressive
Scan order : Top Field First
Compression mode : Lossy
Time code of first frame : 00:00:00:00
Time code source : Group of pictures header
Color primaries : BT.601 NTSC
Transfer characteristics : BT.601
Matrix coefficients : BT.601

Menu

General
Complete name : W:\UP\Mix\Rush 2011 - Sector 2\DVD1. 1977 - A Farewell Kings\VIDEO_TS\VTS_01_0.BUP
Format : DVD Video
Format profile : Program
File size : 42.0 KiB
Duration : 37mn 25s
Overall bit rate mode : Variable
Overall bit rate : 153 bps

Video
ID : 224 (0xE0)
Format : MPEG Video
Format version : Version 2
Duration : 37mn 25s
Bit rate mode : Variable
Width : 720 pixels
Height : 480 pixels
Display aspect ratio : 16:9
Frame rate : 29.970 fps
Standard : NTSC
Compression mode : Lossy

Audio #1
ID : 128 (0x80)
Format : AC-3
Format/Info : Audio Coding 3
Duration : 37mn 25s
Channel(s) : 6 channels
Sampling rate : 48.0 KHz
Compression mode : Lossy
Language : English

Audio #2
ID : 129 (0x81)
Format : AC-3
Format/Info : Audio Coding 3
Duration : 37mn 25s
Channel(s) : 2 channels
Sampling rate : 48.0 KHz
Compression mode : Lossy
Language : English

Text
ID : 32 (0x20)
Format : RLE
Format/Info : Run-length encoding
Bit depth : 2 bits
Language : English

Menu
Duration : 37mn 25s
00:00:00.000 : Chapter 1
00:05:53.966 : Chapter 2
00:17:02.899 : Chapter 3
00:19:58.332 : Chapter 4
00:24:21.265 : Chapter 5
00:26:57.765 : Chapter 6
00:37:24.298 : Chapter 7
List (Audio) : 0 / 1
List (Subtitles 4/3) : 0
List (Subtitles Wide) : 0
List (Subtitles Letterbox) : 0
List (Subtitles Pan&Scan) : 1

General
Complete name : W:\UP\Mix\Rush 2011 - Sector 2\DVD1. 1977 - A Farewell Kings\VIDEO_TS\VTS_01_0.IFO
Format : DVD Video
Format profile : Program
File size : 42.0 KiB
Duration : 37mn 25s
Overall bit rate mode : Variable
Overall bit rate : 153 bps

Video
ID : 224 (0xE0)
Format : MPEG Video
Format version : Version 2
Duration : 37mn 25s
Bit rate mode : Variable
Width : 720 pixels
Height : 480 pixels
Display aspect ratio : 16:9
Frame rate : 29.970 fps
Standard : NTSC
Compression mode : Lossy

Audio #1
ID : 128 (0x80)
Format : AC-3
Format/Info : Audio Coding 3
Duration : 37mn 25s
Channel(s) : 6 channels
Sampling rate : 48.0 KHz
Compression mode : Lossy
Language : English

Audio #2
ID : 129 (0x81)
Format : AC-3
Format/Info : Audio Coding 3
Duration : 37mn 25s
Channel(s) : 2 channels
Sampling rate : 48.0 KHz
Compression mode : Lossy
Language : English

Text
ID : 32 (0x20)
Format : RLE
Format/Info : Run-length encoding
Bit depth : 2 bits
Language : English

Menu
Duration : 37mn 25s
00:00:00.000 : Chapter 1
00:05:53.966 : Chapter 2
00:17:02.899 : Chapter 3
00:19:58.332 : Chapter 4
00:24:21.265 : Chapter 5
00:26:57.765 : Chapter 6
00:37:24.298 : Chapter 7
List (Audio) : 0 / 1
List (Subtitles 4/3) : 0
List (Subtitles Wide) : 0
List (Subtitles Letterbox) : 0
List (Subtitles Pan&Scan) : 1

General
Complete name : W:\UP\Mix\Rush 2011 - Sector 2\DVD1. 1977 - A Farewell Kings\VIDEO_TS\VTS_01_0.VOB
Format : MPEG-PS
File size : 242 MiB
Duration : 33ms
Overall bit rate : 61.5 Gbps

Video
ID : 224 (0xE0)
Format : MPEG Video
Format version : Version 2
Format profile : Main@Main
Format settings, BVOP : Yes
Format settings, Matrix : Default
Format settings, GOP : Variable
Duration : 33ms
Maximum bit rate : 8 000 Kbps
Width : 720 pixels
Height : 480 pixels
Display aspect ratio : 16:9
Frame rate : 29.970 fps
Standard : NTSC
Color space : YUV
Chroma subsampling : 4:2:0
Bit depth : 8 bits
Scan type : Progressive
Scan order : Bottom Field First
Compression mode : Lossy
Time code of first frame : 00:00:00:00
Time code source : Group of pictures header

Audio
ID : 189 (0xBD)-128 (0x80)
Format : AC-3
Format/Info : Audio Coding 3
Mode extension : CM (complete main)
Format settings, Endianness : Big
Muxing mode : DVD-Video
Duration : 33ms
Bit rate mode : Constant
Bit rate : 224 Kbps
Channel(s) : 2 channels
Channel positions : Front: L R
Sampling rate : 48.0 KHz
Bit depth : 16 bits
Compression mode : Lossy
Stream size : 924 Bytes (0%)

Text #1
ID : 189 (0xBD)-32 (0x20)
Format : RLE
Format/Info : Run-length encoding
Muxing mode : DVD-Video

Text #2
ID : 189 (0xBD)-33 (0x21)
Format : RLE
Format/Info : Run-length encoding
Muxing mode : DVD-Video

Menu

General
Complete name : W:\UP\Mix\Rush 2011 - Sector 2\DVD1. 1977 - A Farewell Kings\VIDEO_TS\VTS_01_1.VOB
Format : MPEG-PS
File size : 192 MiB
Duration : 10mn 27s
Overall bit rate : 2 569 Kbps

Video
ID : 224 (0xE0)
Format : MPEG Video
Format version : Version 2
Format profile : Main@Main
Format settings, BVOP : No
Format settings, Matrix : Custom
Duration : 33ms
Bit rate : 1 846 Kbps
Maximum bit rate : 8 000 Kbps
Width : 720 pixels
Height : 480 pixels
Display aspect ratio : 16:9
Frame rate : 29.970 fps
Standard : NTSC
Color space : YUV
Chroma subsampling : 4:2:0
Bit depth : 8 bits
Scan type : Progressive
Scan order : Top Field First
Compression mode : Lossy
Bits/(Pixel*Frame) : 0.178
Time code of first frame : 00:00:00:00
Time code source : Group of pictures header
Stream size : 7.52 KiB (0%)
Color primaries : BT.601 NTSC
Transfer characteristics : BT.601
Matrix coefficients : BT.601

Audio #1
ID : 189 (0xBD)-128 (0x80)
Format : AC-3
Format/Info : Audio Coding 3
Mode extension : CM (complete main)
Format settings, Endianness : Big
Muxing mode : DVD-Video
Duration : 10mn 27s
Bit rate mode : Constant
Bit rate : 448 Kbps
Channel(s) : 6 channels
Channel positions : Front: L C R, Side: L R, LFE
Sampling rate : 48.0 KHz
Bit depth : 16 bits
Compression mode : Lossy
Stream size : 33.5 MiB (17%)

Audio #2
ID : 189 (0xBD)-129 (0x81)
Format : AC-3
Format/Info : Audio Coding 3
Mode extension : CM (complete main)
Format settings, Endianness : Big
Muxing mode : DVD-Video
Duration : 10mn 27s
Bit rate mode : Constant
Bit rate : 224 Kbps
Channel(s) : 2 channels
Channel positions : Front: L R
Sampling rate : 48.0 KHz
Bit depth : 16 bits
Compression mode : Lossy
Stream size : 16.7 MiB (9%)

Text #1
ID : 189 (0xBD)-32 (0x20)
Format : RLE
Format/Info : Run-length encoding
Muxing mode : DVD-Video

Text #2
ID : 189 (0xBD)-33 (0x21)
Format : RLE
Format/Info : Run-length encoding
Muxing mode : DVD-Video

Menu



Rush - Sector Two (2011) [5CD + DVD Box Set] Repost

Rush - Sector Two (2011) [5CD + DVD Box Set] Repost

Rush - Sector Two (2011) [5CD + DVD Box Set] Repost

Rush - Sector Two (2011) [5CD + DVD Box Set] Repost

All thanks go to ALLexxess

Rush or Rush in my Blog

Download Rush - Sector Two (2011):