Subcategories

Russ Taff - Walls Of Glass (1983) [1987, Reissue]

Posted By: BlondStyle
Russ Taff - Walls Of Glass (1983) [1987, Reissue]

Russ Taff - Walls Of Glass (1983) [1987, Reissue]
Pop/Rock, AOR, Contemporary Christian | EAC Rip | FLAC, Img+CUE+LOG+Scans (PNG) | 42:03 | 410,67 Mb
Label: Myrrh Records (USA) | Cat.# 7016706613 | Released: 1987 (1983)
Russ Taff - Walls Of Glass (1983) [1987, Reissue]

Russell Taff (born November 11, 1953) is an American gospel singer and songwriter. He has sung a variety of musical styles throughout his career including: pop rock, traditional southern gospel, contemporary country music, and rhythm and blues. He first gained recognition as lead vocalist for the Imperials (1976-1981). One of his best-known performances is the song "Praise the Lord". He has also been a member of the Gaither Vocal Band, and occasionally tours with Bill Gaither in the Gaither Homecoming concerts. As a solo artist and songwriter, Taff is known for the 1980s anthem "We Will Stand".
~Wikipedia

Russ Taff - Walls Of Glass (1983) [1987, Reissue]

Russ Taff - Walls Of Glass (1983) [1987, Reissue]




Release of the album: 1983 [LP Myrrh, Cat.# MSB 6706, USA]
Release of this CD: 1987 [CD Myrrh (USA), Cat.# 7016706613 (DIDX 007967) / UPC: 080688020828]
℗&© 1983 Word, Inc.
Myrrh, a Division of Word Inc.
Manufactured by Word, Inc.
Printed in U.S.A.


Credits:

Arranged By [Horns] – Jerry Hey
Co-producer [Production Assistant] – Janet Heard
Engineer – Bill Schnee
Engineer [Additional] – Jack Joseph Puig
Engineer [Assistant] – Daniel Garcia
Engineer [Assitant] – David Schober
Mastered By – Doug Sax
Producer – Bill Schnee

Backing Vocals:
Arnold McCuller, David Lasley, Russell Taff, Bill Champlin, Carmen Twillie, Tamara Champlin, Charlotte Crossley, Joann Harris, Arnold McCuller, Bobby Messano, Cynthia Clawson, Don Cason, Franke Previte, Gary Whitlock, Harry Browning, Laury Boone, Ragan Courtney, Susan Pyron Heard, Tori Taff, Bonnie Bramlett, Dony McGuire, Reba Rambo


Tracklist:

01. Tell Them (04:24)
(Russ Taff, Tori Taff / James Hollihan)
02. Walls Of Glass (04:00)
(Raymond Brown, Russ Taff, Tori Taff / Keith Thomas)
03. I Want To Change (05:09)
(Russ Taff, Tori Taff / James Hollihan)
04. Pure In Heart (04:01)
(Raymond Brown, Russ Taff, Tori Taff / Robbie Buchanan)
05. We Will Stand (04:39)
(Russ Taff, Tori Taff / James Hollihan)
06. Jeremiah (04:05)
(Stormie Omartian / Michael Omartian)
07. Inside Look (04:03)
(James Hollihan, Russ Taff, Tori Taff / James Newton Howard)
08. Just Believe (04:31)
(Russ Taff, Tori Taff / James Hollihan)
09. Kathryn's Song (04:27)
(Patti Roberts)
10. Unto The Lamb (02:44)
(Russ Taff, Tori Taff / Bill George)

Exact Audio Copy V1.3 from 2. September 2016

EAC extraction logfile from 18. February 2020, 19:10

Russ Taff / Walls Of Glass

Used drive : PIONEER BD-RW BDR-208D Adapter: 1 ID: 0

Read mode : Secure
Utilize accurate stream : Yes
Defeat audio cache : Yes
Make use of C2 pointers : No

Read offset correction : 667
Overread into Lead-In and Lead-Out : No
Fill up missing offset samples with silence : Yes
Delete leading and trailing silent blocks : No
Null samples used in CRC calculations : Yes
Used interface : Native Win32 interface for Win NT & 2000

Used output format : Internal WAV Routines
Sample format : 44.100 Hz; 16 Bit; Stereo


TOC of the extracted CD

Track | Start | Length | Start sector | End sector
––––––––––––––––––––––––––––-
1 | 0:00.00 | 4:24.17 | 0 | 19816
2 | 4:24.17 | 3:59.57 | 19817 | 37798
3 | 8:23.74 | 5:09.37 | 37799 | 61010
4 | 13:33.36 | 4:01.01 | 61011 | 79086
5 | 17:34.37 | 4:38.47 | 79087 | 99983
6 | 22:13.09 | 4:04.59 | 99984 | 118342
7 | 26:17.68 | 4:03.21 | 118343 | 136588
8 | 30:21.14 | 4:30.49 | 136589 | 156887
9 | 34:51.63 | 4:26.44 | 156888 | 176881
10 | 39:18.32 | 2:44.17 | 176882 | 189198


Range status and errors

Selected range

Filename D:\BlondStyle\Russ Taff - Walls Of Glass.wav

Peak level 96.6 %
Extraction speed 6.4 X
Range quality 100.0 %
Test CRC ADBD5E35
Copy CRC ADBD5E35
Copy OK

No errors occurred


AccurateRip summary

Track 1 accurately ripped (confidence 4) [9564B0C7] (AR v2)
Track 2 accurately ripped (confidence 5) [0DEB962B] (AR v2)
Track 3 accurately ripped (confidence 5) [7668F575] (AR v2)
Track 4 accurately ripped (confidence 5) [BF0A82E2] (AR v2)
Track 5 accurately ripped (confidence 5) [0C6D65C5] (AR v2)
Track 6 accurately ripped (confidence 5) [11D445AC] (AR v2)
Track 7 accurately ripped (confidence 5) [A0093301] (AR v2)
Track 8 accurately ripped (confidence 5) [106A5A63] (AR v2)
Track 9 accurately ripped (confidence 5) [9A7DCAD3] (AR v2)
Track 10 accurately ripped (confidence 5) [07F6F010] (AR v2)

All tracks accurately ripped

End of status report

–– CUETools DB Plugin V2.1.6

[CTDB TOCID: uTjWx2opUuHVVjVlDcLSsniQEos-] disk not present in database
Submit result: uTjWx2opUuHVVjVlDcLSsniQEos- has been uploaded


==== Log checksum DACBBE520CE4F337419F5CC0B2C4B48B3272B9E613FBAF0E03DF8B1315A5C50D ====

––––––––––––––––––––––––––––––––––––––––
Analyzed: Russ Taff / Walls Of Glass
––––––––––––––––––––––––––––––––––––––––

DR Peak RMS Duration Track
––––––––––––––––––––––––––––––––––––––––
DR12 -0.30 dB -13.73 dB 4:24 01-Tell Them
DR13 -0.30 dB -14.13 dB 4:00 02-Walls Of Glass
DR13 -0.30 dB -15.19 dB 5:09 03-I Want To Change
DR12 -0.30 dB -13.86 dB 4:01 04-Pure In Heart
DR13 -0.30 dB -15.18 dB 4:39 05-We Will Stand
DR13 -0.30 dB -14.44 dB 4:05 06-Jeremiah
DR12 -0.30 dB -13.35 dB 4:03 07-Inside Look
DR12 -0.30 dB -14.55 dB 4:31 08-Just Believe
DR11 -2.74 dB -18.69 dB 4:27 09-Kathryn's Song
DR11 -1.32 dB -16.08 dB 2:44 10-Unto The Lamb
––––––––––––––––––––––––––––––––––––––––

Number of tracks: 10
Official DR value: DR12

Samplerate: 44100 Hz
Channels: 2
Bits per sample: 16
Bitrate: 945 kbps
Codec: FLAC
================================================================================