Subcategories
Tags
Language
Tags

Rust - Come With Me (1969) [Reissue 2002]

Posted By: gribovar
Rust - Come With Me (1969) [Reissue 2002]

Rust Underground - Come With Me (1969) [Reissue 2002]
EAC Rip | FLAC (tracks+.cue+log) - 250 MB | MP3 CBR 320 kbps (LAME 3.93) - 90 MB | Covers (8 MB) included
Genre: Psychedelic Rock | RAR 3% Rec. | Label: Akarma (AK 208)

Rust is the real deal. Originally recorded in 1969, their album, Come With Me, is something of a lost mini-classic. Originally released on the independent German label Hor Zu, and bringing it to light in the early 21st century. Great, psychedelic rock tunes are embellished with phased vocals, treated piano, samples of radio broadcasts, washes of organ, and electronic effects. Mind you, this isn't total freak out music, or anything. Songs like You Thought You Had It Made and Rust revel in blues licks, and rock with a genuine joy, even if the subject matter of their lyrics is somewhat pessimistic, and softer tunes like Please Return and the gorgeous Find a Hideaway are full of acoustic guitars and vocal harmonies.
Tracklist:
01. Come With Me
02. You Thought You Had It Made
03. Please Return
04. Should I
05. Think Big
06. Rust
07. Delusion
08. Doesn't Add Up To Me
09. Find A Hideaway
10. Come With Me
11. The Endless Struggle

Total time: 34:54

Exact Audio Copy V1.0 beta 3 from 29. August 2011

EAC extraction logfile from 28. October 2011, 7:38

Rust / Come With Me [2002 Akarma Records Remaster]

Used drive : PHILIPS DVD+-RW DVD8801 Adapter: 1 ID: 0

Read mode : Secure
Utilize accurate stream : Yes
Defeat audio cache : Yes
Make use of C2 pointers : No

Read offset correction : 618
Overread into Lead-In and Lead-Out : No
Fill up missing offset samples with silence : Yes
Delete leading and trailing silent blocks : No
Null samples used in CRC calculations : Yes
Used interface : Native Win32 interface for Win NT & 2000
Gap handling : Appended to previous track

Used output format : User Defined Encoder
Selected bitrate : 1024 kBit/s
Quality : High
Add ID3 tag : No
Command line compressor : C:\Program Files\Exact Audio Copy\FLAC\FLAC.EXE
Additional command line options : -8 -V -T "ARTIST=%artist%" -T "TITLE=%title%" -T "ALBUM=%albumtitle%" -T "DATE=%year%" -T "TRACKNUMBER=%tracknr%" -T "GENRE=%genre%" -T "COMMENT=%comment%" -T "BAND=%albuminterpret%" -T "ALBUMARTIST=%albuminterpret%" -T "COMPOSER=%composer%" %haslyrics%–tag-from-file=LYRICS="%lyricsfile%"%haslyrics% -T "DISCNUMBER=%cdnumber%" -T "TOTALDISCS=%totalcds%" -T "TOTALTRACKS=%numtracks%" %hascover%–picture="%coverfile%"%hascover% %source% -o %dest%


TOC of the extracted CD

Track | Start | Length | Start sector | End sector
––––––––––––––––––––––––––––-
1 | 0:00.00 | 0:36.12 | 0 | 2711
2 | 0:36.12 | 3:34.23 | 2712 | 18784
3 | 4:10.35 | 2:37.27 | 18785 | 30586
4 | 6:47.62 | 3:30.55 | 30587 | 46391
5 | 10:18.42 | 3:56.60 | 46392 | 64151
6 | 14:15.27 | 3:33.30 | 64152 | 80156
7 | 17:48.57 | 2:44.72 | 80157 | 92528
8 | 20:33.54 | 3:45.66 | 92529 | 109469
9 | 24:19.45 | 3:38.12 | 109470 | 125831
10 | 27:57.57 | 4:24.20 | 125832 | 145651
11 | 32:22.02 | 2:32.18 | 145652 | 157069


Track 1

Filename C:\Rust - Come With Me [2002 Akarma Records Remaster]\01 Come With Me.wav

Pre-gap length 0:00:02.00

Peak level 99.9 %
Extraction speed 1.5 X
Track quality 99.7 %
Test CRC 3EC46A38
Copy CRC 3EC46A38
Accurately ripped (confidence 1) [AAD8D789] (AR v1)
Copy OK

Track 2

Filename C:\Rust - Come With Me [2002 Akarma Records Remaster]\02 You Thought You Had It Made.wav

Peak level 92.7 %
Extraction speed 4.8 X
Track quality 100.0 %
Test CRC ECD37B34
Copy CRC ECD37B34
Accurately ripped (confidence 1) [02AE79FC] (AR v1)
Copy OK

Track 3

Filename C:\Rust - Come With Me [2002 Akarma Records Remaster]\03 Please Return.wav

Peak level 100.0 %
Extraction speed 3.9 X
Track quality 99.9 %
Test CRC FC3C9144
Copy CRC FC3C9144
Accurately ripped (confidence 1) [C001AC23] (AR v1)
Copy OK

Track 4

Filename C:\Rust - Come With Me [2002 Akarma Records Remaster]\04 Should I.wav

Peak level 83.7 %
Extraction speed 5.5 X
Track quality 100.0 %
Test CRC 3C6D2662
Copy CRC 3C6D2662
Accurately ripped (confidence 1) [AC86F046] (AR v1)
Copy OK

Track 5

Filename C:\Rust - Come With Me [2002 Akarma Records Remaster]\05 Think Big.wav

Peak level 89.8 %
Extraction speed 6.0 X
Track quality 100.0 %
Test CRC B11108C6
Copy CRC B11108C6
Accurately ripped (confidence 1) [74FA9AA5] (AR v1)
Copy OK

Track 6

Filename C:\Rust - Come With Me [2002 Akarma Records Remaster]\06 Rust.wav

Peak level 95.0 %
Extraction speed 6.2 X
Track quality 100.0 %
Test CRC 16A3E3A5
Copy CRC 16A3E3A5
Accurately ripped (confidence 1) [9E466B3C] (AR v1)
Copy OK

Track 7

Filename C:\Rust - Come With Me [2002 Akarma Records Remaster]\07 Delusion.wav

Peak level 94.3 %
Extraction speed 6.3 X
Track quality 100.0 %
Test CRC 0AA85C30
Copy CRC 0AA85C30
Accurately ripped (confidence 1) [74894CE4] (AR v1)
Copy OK

Track 8

Filename C:\Rust - Come With Me [2002 Akarma Records Remaster]\08 Doesn't Add Up To Me.wav

Peak level 99.9 %
Extraction speed 6.8 X
Track quality 100.0 %
Test CRC FE6D9578
Copy CRC FE6D9578
Accurately ripped (confidence 1) [A99A5AD8] (AR v1)
Copy OK

Track 9

Filename C:\Rust - Come With Me [2002 Akarma Records Remaster]\09 Find A Hideaway.wav

Peak level 97.1 %
Extraction speed 7.0 X
Track quality 100.0 %
Test CRC 616D7740
Copy CRC 616D7740
Accurately ripped (confidence 1) [0591D283] (AR v1)
Copy OK

Track 10

Filename C:\Rust - Come With Me [2002 Akarma Records Remaster]\10 Come With Me.wav

Peak level 91.9 %
Extraction speed 6.5 X
Track quality 99.9 %
Test CRC 16E47962
Copy CRC 16E47962
Accurately ripped (confidence 1) [37A0035D] (AR v1)
Copy OK

Track 11

Filename C:\Rust - Come With Me [2002 Akarma Records Remaster]\11 The Endless Struggle.wav

Peak level 91.7 %
Extraction speed 7.1 X
Track quality 100.0 %
Test CRC 6D6B11A8
Copy CRC 6D6B11A8
Accurately ripped (confidence 1) [C58C874B] (AR v1)
Copy OK


All tracks accurately ripped

No errors occurred

End of status report

==== Log checksum A57C910F1C41C2861ECB5E72DED57698B78284A9ACE2E54501F4EA9B093A8339 ====

[CUETools log; Date: 13.01.2021 2:08:06; Version: 2.1.4]
[CTDB TOCID: kYUrH5fYuRZumHbZaPzEDL_nugc-] found.
Track | CTDB Status
1 | (7/7) Accurately ripped
2 | (7/7) Accurately ripped
3 | (7/7) Accurately ripped
4 | (7/7) Accurately ripped
5 | (7/7) Accurately ripped
6 | (7/7) Accurately ripped
7 | (7/7) Accurately ripped
8 | (7/7) Accurately ripped
9 | (7/7) Accurately ripped
10 | (7/7) Accurately ripped
11 | (7/7) Accurately ripped
[AccurateRip ID: 000d537a-0077853d-87082e0b] found.
Track [ CRC | V2 ] Status
01 [aad8d789|06f3ecb1] (1+1/2) Accurately ripped
02 [02ae79fc|7f6e68a2] (1+1/2) Accurately ripped
03 [c001ac23|fcb6cd3f] (1+1/2) Accurately ripped
04 [ac86f046|fd36d9a9] (1+1/2) Accurately ripped
05 [74fa9aa5|98b3fbf8] (1+1/2) Accurately ripped
06 [9e466b3c|5920ecf7] (1+1/2) Accurately ripped
07 [74894ce4|4886caa7] (1+1/2) Accurately ripped
08 [a99a5ad8|5b0d6e15] (1+1/2) Accurately ripped
09 [0591d283|2e487d41] (1+1/2) Accurately ripped
10 [37a0035d|be3336b8] (1+1/2) Accurately ripped
11 [c58c874b|758a949f] (1+1/2) Accurately ripped

Track Peak [ CRC32 ] [W/O NULL] [ LOG ]
– 99,9 [FC552B2D] [A98ACFF7]
01 99,9 [3EC46A38] [FAC04B78] CRC32
02 92,7 [ECD37B34] [A8A9850D] CRC32
03 99,9 [FC3C9144] [A2398DF2] CRC32
04 83,7 [3C6D2662] [9E089B7E] CRC32
05 89,8 [B11108C6] [6F5D78ED] CRC32
06 95,0 [16A3E3A5] [040D34D5] CRC32
07 94,3 [0AA85C30] [A02B405E] CRC32
08 99,9 [FE6D9578] [47CE8AE4] CRC32
09 97,1 [616D7740] [B06A0E47] CRC32
10 91,9 [16E47962] [B8626576] CRC32
11 91,7 [6D6B11A8] [164FADB6] CRC32

Thanks to the original releaser