Subcategories

Ryan Adams - Prisoner (2017)

Posted By: popsakov
Ryan Adams - Prisoner (2017)

Ryan Adams - Prisoner (2017)
EAC Rip | FLAC (Img) + Cue + Log ~ 285 Mb | MP3 CBR320 ~ 113 Mb
Covers Included | 00:42:57 | RAR 5% Recovery
Alternative Rock / Indie Rock / Alternative Country / Americana
Blue Note #00602557134551 / Pax Americana Record Company #PAX-AM 058

Prisoner is the sixteenth studio album by American singer-songwriter Ryan Adams. It was released on February 17, 2017. The album is Adams' first album of original material since his 2014 album, Ryan Adams, and was preceded by the singles "Do You Still Love Me?", "To Be Without You", and "Doomsday". Prisoner received generally positive reviews from music critics. At Metacritic, which assigns a normalized rating out of 100 to reviews from mainstream critics, the album has an average score of 79 based on 26 reviews, indicating "generally favorable reviews." Stephen Thomas Erlewine of AllMusic rated the album four out of five stars, calls it "charming", and states, "it's not a record that wallows in hurt, it's an album that functions as balm for bad times." Writing for Slant Magazine, Jeremy Winograd rated the album four of five stars and states Prisoner is "one of Adams's most sonically artful albums to date."

***************

Ryan Adams - Prisoner (2017)

Track List:

01. Do You Still Love Me? [4:00]
02. Prisoner [3:12]
03. Doomsday [3:02]
04. Haunted House [2:42]
05. Shiver And Shake [3:05]
06. To Be Without You [3:22]
07. Anything I Say To You Now [4:51]
08. Breakdown [4:00]
09. Outbound Train [4:21]
10. Broken Anyway [2:57]
11. Tightrope [3:56]
12. We Disappear [3:29]

Exact Audio Copy V1.1 from 23. June 2015

EAC extraction logfile from 19. February 2017, 11:36

Ryan Adams / Prisoner

Used drive : Pioneer BDR-S09XLT Adapter: 0 ID: 0

Read mode : Secure
Utilize accurate stream : Yes
Defeat audio cache : Yes
Make use of C2 pointers : No

Read offset correction : 6
Overread into Lead-In and Lead-Out : No
Fill up missing offset samples with silence : Yes
Delete leading and trailing silent blocks : No
Null samples used in CRC calculations : Yes
Used interface : Installed external ASPI interface

Used output format : Internal WAV Routines
Sample format : 44.100 Hz; 16 Bit; Stereo


TOC of the extracted CD

Track | Start | Length | Start sector | End sector
––––––––––––––––––––––––––––-
1 | 0:00.00 | 3:59.40 | 0 | 17964
2 | 3:59.40 | 3:11.41 | 17965 | 32330
3 | 7:11.06 | 3:01.63 | 32331 | 45968
4 | 10:12.69 | 2:42.23 | 45969 | 58141
5 | 12:55.17 | 3:05.01 | 58142 | 72017
6 | 16:00.18 | 3:21.38 | 72018 | 87130
7 | 19:21.56 | 4:50.70 | 87131 | 108950
8 | 24:12.51 | 4:00.33 | 108951 | 126983
9 | 28:13.09 | 4:21.05 | 126984 | 146563
10 | 32:34.14 | 2:57.25 | 146564 | 159863
11 | 35:31.39 | 3:56.33 | 159864 | 177596
12 | 39:27.72 | 3:29.35 | 177597 | 193306


Range status and errors

Selected range

Filename A:\Spots\EAC\Ryan Adams - Prisoner\Ryan Adams - Prisoner.wav

Peak level 100.0 %
Extraction speed 5.6 X
Range quality 100.0 %
Test CRC 37065232
Copy CRC 37065232
Copy OK

No errors occurred


AccurateRip summary

Track 1 not present in database
Track 2 not present in database
Track 3 not present in database
Track 4 not present in database
Track 5 not present in database
Track 6 not present in database
Track 7 not present in database
Track 8 not present in database
Track 9 not present in database
Track 10 not present in database
Track 11 not present in database
Track 12 not present in database

None of the tracks are present in the AccurateRip database

End of status report

[CUETools log; Date: 01.08.2020 22:57:58; Version: 2.1.6]
[CTDB TOCID: v39y0lHm_NiKgQ1LCN.2L4Oa.eA-] found.
Track | CTDB Status
1 | (482/484) Accurately ripped
2 | (483/484) Accurately ripped
3 | (483/484) Accurately ripped
4 | (482/484) Accurately ripped
5 | (482/484) Accurately ripped
6 | (482/484) Accurately ripped
7 | (483/484) Accurately ripped
8 | (482/484) Accurately ripped
9 | (476/484) Accurately ripped
10 | (461/484) Accurately ripped, or (2/484) differs in 10 samples @02:52:67,02:53:40,02:55:16, or (3/484) differs in 24 samples @02:51:32,02:52:67,02:53:40, or (4/484) differs in 65 samples @02:52:67,02:53:39-02:53:40
11 | (481/484) Accurately ripped
12 | (476/484) Accurately ripped
[AccurateRip ID: 0012b847-00aff80a-a40a110c] found.
Track [ CRC | V2 ] Status
01 [e1ab2d3d|788baf60] (000+159/159) Accurately ripped
02 [eb10f3d1|da9bfeec] (000+159/159) Accurately ripped
03 [255e2262|89b65a98] (000+159/159) Accurately ripped
04 [a09a4c63|ff4c20bc] (002+159/161) Accurately ripped
05 [27c5299b|0e78dc12] (000+159/159) Accurately ripped
06 [0c7529dd|f20993e2] (002+160/162) Accurately ripped
07 [73022a89|d3d3ccee] (000+159/159) Accurately ripped
08 [e0c8f2b6|f281a71c] (002+158/160) Accurately ripped
09 [6a8095c0|061a09f2] (000+155/155) Accurately ripped
10 [c0270c7f|1b1b98d4] (000+150/152) Accurately ripped
11 [8008a3c1|77fe311a] (000+159/159) Accurately ripped
12 [c5556f40|9415dfce] (000+152/154) Accurately ripped

Track Peak [ CRC32 ] [W/O NULL] [ LOG ]
– 100,0 [37065232] [F3D7C038] CRC32
01 100,0 [4B2EA8F0] [CECE5F4D]
02 99,1 [7D846DE8] [41CD26A8]
03 100,0 [35FCDE57] [1763A145]
04 100,0 [D53B450F] [FAA003E6]
05 72,8 [1B42E89A] [E7449C7E]
06 98,6 [7C997B38] [B1D4402D]
07 100,0 [D479A420] [4BEF885D]
08 97,6 [11C92C57] [A95D7F58]
09 98,1 [56110E3C] [36BA17A5]
10 99,6 [2ADE8898] [8FBE3AA9]
11 100,0 [88AC763F] [C119A2FD]
12 99,1 [5AA00E53] [20FAA7A0]

Ryan Adams - Prisoner (2017)


All thanks go to the original ripper(s) …

>>> My Blog <<<

DOWNLOAD: