Tags
Language
Tags

Ryuichi Sakamoto - Behind The Mask +3 (1987) [Reissue 1993]

Posted By: gribovar
Ryuichi Sakamoto - Behind The Mask +3 (1987) [Reissue 1993]

Ryuichi Sakamoto - Behind The Mask +3 (1987) [Reissue 1993]
EAC Rip | FLAC (image+.cue+log) - 207 MB | MP3 CBR 320 kbps (LAME 3.93) - 73 MB | Covers (9 MB) included
Genre: Synthpop | RAR 3% Rec. | Label: Midi Inc. (MDCZ-1223)

As one-third of Yellow Magic Orchestra and an Academy Award-winning composer for his work on the soundtrack for The Last Emperor, synth pop innovator Ryuichi Sakamoto is among the most groundbreaking artists to have emerged since the late '70s. The driving force behind "Neo Geo," a cutting-edge fusion of Asian and Western classical music with other global textures and rhythms, he has been equally adept in electronic and acoustic settings, whether recording in solitude or in tandem, with decades of steady activity. His discography is immense and varied, including solo piano works, proto-techno, experimental ambient, and glitch.
Tracklist:
01. Behind The Mask
02. Risky
03. Field Work
04. Steppin' Into Asia (TV Track)
05. Field Work (Edit)
06. Ryouganbisyou

Total time: 27:12

Exact Audio Copy V0.99 prebeta 4 from 23. January 2008

Отчёт EAC об извлечении, выполненном 3. июня 2010, 0:26

Ryuichi Sakamoto / Behind The Mask +3

Дисковод: ASUS DRW-20B1LT Adapter: 4 ID: 0

Режим чтения : Достоверность
Использование точного потока : Да
Отключение кэша аудио : Да
Использование указателей C2 : Нет

Коррекция смещения при чтении : 6
Способность читать области Lead-in и Lead-out : Нет
Заполнение пропущенных сэмплов тишиной : Да
Удаление блоков с тишиной в начале и конце : Нет
При вычислениях CRC использовались нулевые сэмплы : Да
Интерфейс : Встроенный Win32-интерфейс для Win NT/2000

Выходной формат : Пользовательский кодировщик
Выбранный битрейт : 768 kBit/s
Качество : Высокий
Добавление ID3-тэга : Нет
Утилита сжатия : D:\Program Files\Exact Audio Copy\Flac\Flac.exe
Дополнительные параметры : -8 –delete-input-file -o "D:\CDImage.flac" -V %s


TOC извлечённого CD

Трек | Старт | Длительность | Начальный сектор | Конечный сектор
––––––––––––––––––––––––––––––––––-
1 | 0:00.00 | 5:31.20 | 0 | 24844
2 | 5:31.20 | 6:24.02 | 24845 | 53646
3 | 11:55.22 | 5:07.28 | 53647 | 76699
4 | 17:02.50 | 3:39.25 | 76700 | 93149
5 | 20:42.00 | 2:33.65 | 93150 | 104689
6 | 23:15.65 | 3:56.42 | 104690 | 122431


Характеристики диапазона извлечения и сообщения об ошибках

Выбранный диапазон

Имя файла D:\Ryuichi Sakamoto - Behind The Mask +3.wav

Пиковый уровень 100.0 %
Качество диапазона 99.9 %
CRC теста 84C265FB
CRC копии 84C265FB
Копирование… OK

Ошибок не произошло


AccurateRip: сводка

Трек 1 точность не определена (достоверность 1) [73E10A86], AccurateRip вернул [7C0E63D1]
Трек 2 точность не определена (достоверность 1) [4F2CD52C], AccurateRip вернул [C3232103]
Трек 3 точность не определена (достоверность 1) [569F8CBA], AccurateRip вернул [591AD68C]
Трек 4 точность не определена (достоверность 1) [ECAA948C], AccurateRip вернул [B688CED4]
Трек 5 точность не определена (достоверность 1) [AB302CC7], AccurateRip вернул [AD074A73]
Трек 6 точность не определена (достоверность 1) [5C08D0EA], AccurateRip вернул [16602A18]

Ни один трек не прошёл проверки на точность
В вашей базе может быть иной вариант штамповки диска

Конец отчёта

[CUETools log; Date: 08.07.2019 2:41:56; Version: 2.1.4]
[CTDB TOCID: eboHMMfxY5tZMd7XlXIZ_uVrONQ-] found.
Track | CTDB Status
1 | (17/17) Accurately ripped
2 | (17/17) Accurately ripped
3 | (17/17) Accurately ripped
4 | (17/17) Accurately ripped
5 | (17/17) Accurately ripped
6 | (17/17) Accurately ripped
[AccurateRip ID: 00074148-0025a9fa-40066006] found.
Track [ CRC | V2 ] Status
01 [73e10a86|3a1e11ac] (3+2/5) Accurately ripped
02 [4f2cd52c|0641d1de] (3+2/5) Accurately ripped
03 [569f8cba|e326ea14] (3+2/5) Accurately ripped
04 [ecaa948c|ff0c5bb0] (3+2/5) Accurately ripped
05 [ab302cc7|a562a0a5] (3+2/5) Accurately ripped
06 [5c08d0ea|faa5039c] (3+2/5) Accurately ripped

Track Peak [ CRC32 ] [W/O NULL] [ LOG ]
– 100,0 [84C265FB] [010684C0] CRC32
01 100,0 [C3C8AD08] [43D31DC1]
02 100,0 [5DAE93AC] [9F17A483]
03 100,0 [392F2A3B] [E4ECC7DB]
04 100,0 [16BC7C22] [3CC45084]
05 100,0 [DB0DD846] [5C8DA8F9]
06 100,0 [2AD2AA40] [BF3E81BA]

Thanks to orbster

See also:
Ryuichi Sakamoto - Soundtracks (1995)
Ryuichi Sakamoto - Cinemage (1999)
Ryuichi Sakamoto - Chasm (2004) [US Edition]
Fennesz + Sakamoto - Sala Santa Cecilia (2005)
Alva Noto & Ryuichi Sakamoto - Glass (2018)