Subcategories

SBB - Za Linią Horyzontu (2016) (Repost)

Posted By: gribovar
SBB - Za Linią Horyzontu (2016) (Repost)

SBB - Za Linia Horyzontu (2016)
EAC Rip | FLAC (image+.cue+log) - 333 MB | MP3 CBR 320 kbps (LAME 3.93) - 119 MB | Covers - 214 MB
Genre: Progressive Rock | RAR 3% Rec. | Label: Polskie Radio (PRCD 1950)

SBB is one of the most important Polish bands of the seventies. This band, rightfully listed in the eclectic progressive genre, mainly plays a hybrid of symphonic prog, space/atmospheric prog and fusion.

Tracklist:
01. Odwieczni wojownicy
02. Najwyższy czas
03. 360 do tyłu
04. Goris
05. Za linią horyzontu
06. Pacific
07. Zielony, niebieski, żółty
08. Suita nr 9

Total time: 50:34

Exact Audio Copy V1.1 from 23. June 2015

Отчёт EAC об извлечении, выполненном 5. октября 2016, 20:12

SBB / Za Linią Horyzontu

Дисковод: TSSTcorpCDDVDW SH-224DB Adapter: 1 ID: 1

Режим чтения : Достоверность
Использование точного потока : Да
Отключение кэша аудио : Да
Использование указателей C2 : Нет

Коррекция смещения при чтении : 6
Способность читать области Lead-in и Lead-out : Нет
Заполнение пропущенных сэмплов тишиной : Да
Удаление блоков с тишиной в начале и конце : Нет
При вычислениях CRC использовались нулевые сэмплы : Да
Интерфейс : Встроенный Win32-интерфейс для Win NT/2000

Выходной формат : Внутренние WAV-операции
Формат сэмплов : 44.100 Гц; 16 бит; стерео


TOC извлечённого CD

Трек | Старт | Длительность | Начальный сектор | Конечный сектор
––––––––––––––––––––––––––––––––––-
1 | 0:00.00 | 3:57.00 | 0 | 17774
2 | 3:57.00 | 5:28.44 | 17775 | 42418
3 | 9:25.44 | 7:05.43 | 42419 | 74336
4 | 16:31.12 | 5:27.31 | 74337 | 98892
5 | 21:58.43 | 4:08.49 | 98893 | 117541
6 | 26:07.17 | 5:29.44 | 117542 | 142260
7 | 31:36.61 | 3:25.63 | 142261 | 157698
8 | 35:02.49 | 15:31.01 | 157699 | 227524


Характеристики диапазона извлечения и сообщения об ошибках

Выбранный диапазон

Имя файла D:\TEMP\SBB - 2016 - Za Linia Horyzontu [Polskie Radio SA, PRCD 1950].wav

Пиковый уровень 98.8 %
Скорость извлечения 5.0 X
Качество диапазона 100.0 %
CRC теста 0D834C5F
CRC копии 0D834C5F
Копирование… OK

Ошибок не произошло


AccurateRip: сводка

Трек 1 отсутствует в базе данных
Трек 2 отсутствует в базе данных
Трек 3 отсутствует в базе данных
Трек 4 отсутствует в базе данных
Трек 5 отсутствует в базе данных
Трек 6 отсутствует в базе данных
Трек 7 отсутствует в базе данных
Трек 8 отсутствует в базе данных

Ни одного трека нет в базе AccurateRip

Конец отчёта

==== Контрольная сумма отчёта 6643FB7F7C22826F04B49432355F56E9D2089E3F311F67E995B5A24D14D6E40F ====

[CUETools log; Date: 28.08.2019 21:02:57; Version: 2.1.4]
[CTDB TOCID: 2ETEW_zF4IxRLMteVIeP0rDl2PI-] found.
Track | CTDB Status
1 | (38/38) Accurately ripped
2 | (38/38) Accurately ripped
3 | (38/38) Accurately ripped
4 | (38/38) Accurately ripped
5 | (38/38) Accurately ripped
6 | (38/38) Accurately ripped
7 | (38/38) Accurately ripped
8 | (38/38) Accurately ripped
[AccurateRip ID: 000d6773-005b04d9-730bd908] found.
Track [ CRC | V2 ] Status
01 [70c50d05|85c9b884] (00+10/10) Accurately ripped
02 [cb601b2b|7a7cf993] (00+10/10) Accurately ripped
03 [7d8c18fb|c9d7cab3] (00+10/10) Accurately ripped
04 [3f425873|f1a3fb93] (00+10/10) Accurately ripped
05 [d2d4d939|8df9a0f2] (00+10/10) Accurately ripped
06 [16e89401|a2b05ad4] (00+10/10) Accurately ripped
07 [b44efc7d|3a27fa0b] (00+10/10) Accurately ripped
08 [0678b8d9|e088138a] (00+10/10) Accurately ripped

Track Peak [ CRC32 ] [W/O NULL] [ LOG ]
– 98,8 [0D834C5F] [AFC8ACEC] CRC32
01 98,8 [4A5D3C10] [9AA2BAC6]
02 98,8 [1A4367E8] [B5A79047]
03 98,8 [D7A09B85] [8A49D756]
04 98,8 [9B946C61] [11857B43]
05 98,8 [4B169692] [22DDFA06]
06 98,8 [238EFB23] [74446B97]
07 86,8 [4C58E9E7] [8E3C0785]
08 98,8 [2A238693] [233DE4CE]

Thanks to spAceLover