Subcategories

Sabaton - The Great War: History Edition (2019)

Posted By: popsakov
Sabaton - The Great War: History Edition (2019)

Sabaton - The Great War: History Edition (2019) {Limited CD-DIGI}
EAC Rip | FLAC (Img) + Cue + Log ~ 326 Mb | MP3 CBR320 ~ 121 Mb
Full Scans ~ 124 Mb | 42:18 | RAR 5% Recovery
Heavy Metal, Power Metal | Nuclear Blast #NB 5036-0

The Great War is the ninth studio album by Swedish power metal band Sabaton. It was released on 19 July 2019. It is the first studio album to feature guitarist Tommy Johansson. The album was released in four separate editions: the standard release, a history edition with contextual narration preceding each track, a soundtrack edition featuring instrumental versions of the songs, and a Sabaton History Patreon exclusive release containing narration by Indy Neidell. The Great War garnered mostly positive reviews. Metal Hammer's Holly Wright gave it 4/5 stars, praising it as "a rip-roaring, riff-addled march towards victory, coaxing influences from folk and power metal that sounds remarkably upbeat for an account of bloodthirsty mass destruction." The Guardian's Dave Simpson rated the album 3/5 stars and said he preferred the History version, which precedes the songs with voiceovers describing the events the songs are about.

***************

Sabaton - The Great War: History Edition (2019)

Track List:

01. The Future of Warfare [4:30]
02. Seven Pillars of Wisdom [3:31]
03. 82nd All the Way [3:49]
04. The Attack of the Dead Men [4:17]
05. Devil Dogs [3:37]
06. The Red Baron [3:12]
07. Great War [4:54]
08. A Ghost in the Trenches [3:54]
09. Fields of Verdun [3:30]
10. The End of the War to End All Wars [5:08]
11. In Flanders Fields [1:57]

Personnel:
Joakim Brodén - lead vocals, keyboards
Pär Sundström - bass guitar, backing vocals
Chris Rörland - guitars, backing vocals
Tommy Johannson - guitars, backing vocals
Hannes van Dahl - drums, backing vocals

Guest musicians:
Thobbe Englund - guitar solo on «Fields of Verdun»[15]
Antti Martikainen - orchestral arrangements on «Fields of Verdun», additional orchestral arrangements for The Great Box Edition[16]
Floor Jansen - vocals on Soundtrack Edition

Exact Audio Copy V1.3 from 2. September 2016

EAC extraction logfile from 1. August 2019, 12:48

Sabaton / The Great War (History Edition)[27361 50360]

Used drive : HL-DT-STBD-RE BH10LS38 Adapter: 1 ID: 0

Read mode : Secure
Utilize accurate stream : Yes
Defeat audio cache : Yes
Make use of C2 pointers : No

Read offset correction : 667
Overread into Lead-In and Lead-Out : No
Fill up missing offset samples with silence : Yes
Delete leading and trailing silent blocks : No
Null samples used in CRC calculations : Yes
Used interface : Native Win32 interface for Win NT & 2000

Used output format : User Defined Encoder
Selected bitrate : 128 kBit/s
Quality : High
Add ID3 tag : No
Command line compressor : C:\Program Files (x86)\Exact Audio Copy\Flac\flac.exe
Additional command line options : -V -8 -T "Date=%year%" -T "Genre=%genre%" %source%


TOC of the extracted CD

Track | Start | Length | Start sector | End sector
––––––––––––––––––––––––––––-
1 | 0:00.00 | 4:30.28 | 0 | 20277
2 | 4:30.28 | 3:31.05 | 20278 | 36107
3 | 8:01.33 | 3:48.45 | 36108 | 53252
4 | 11:50.03 | 4:16.73 | 53253 | 72525
5 | 16:07.01 | 3:36.58 | 72526 | 88783
6 | 19:43.59 | 3:12.35 | 88784 | 103218
7 | 22:56.19 | 4:53.48 | 103219 | 125241
8 | 27:49.67 | 3:54.06 | 125242 | 142797
9 | 31:43.73 | 3:29.71 | 142798 | 158543
10 | 35:13.69 | 5:07.47 | 158544 | 181615
11 | 40:21.41 | 1:56.61 | 181616 | 190376


Range status and errors

Selected range

Filename D:\Rips by Alder\Sabaton - The Great War (History Edition)[27361 50360].wav

Peak level 98.8 %
Extraction speed 7.5 X
Range quality 100.0 %
Test CRC EFE5BFB8
Copy CRC EFE5BFB8
Copy OK

No errors occurred


AccurateRip summary

Track 1 not present in database
Track 2 not present in database
Track 3 not present in database
Track 4 not present in database
Track 5 not present in database
Track 6 not present in database
Track 7 not present in database
Track 8 not present in database
Track 9 not present in database
Track 10 not present in database
Track 11 not present in database

None of the tracks are present in the AccurateRip database

End of status report

–– CUETools DB Plugin V2.1.6

[CTDB TOCID: dIzF3hTI1S1U9PEF.1K4ApdzRPM-] found
Submit result: dIzF3hTI1S1U9PEF.1K4ApdzRPM- has been confirmed
Track | CTDB Status
1 | (124/124) Accurately ripped
2 | (124/124) Accurately ripped
3 | (124/124) Accurately ripped
4 | (124/124) Accurately ripped
5 | (124/124) Accurately ripped
6 | (124/124) Accurately ripped
7 | (124/124) Accurately ripped
8 | (124/124) Accurately ripped
9 | (124/124) Accurately ripped
10 | (124/124) Accurately ripped
11 | (124/124) Accurately ripped


==== Log checksum DDC3D95D9DBC555CFE39CDF5EBD0A13D9E557703A7AA403E4B6232B1B8871978 ====

Sabaton - The Great War: History Edition (2019)

All thanks go to Alder

>>> My Blog <<<

Download from icerbox.com: