Subcategories

Aurele Nicolet, Heinz Holliger - Antonio Salieri, Domenico Cimarosa, Carl Stamitz: Concertos for Flute And Oboe (1986)

Posted By: Designol
Aurele Nicolet, Heinz Holliger - Antonio Salieri, Domenico Cimarosa, Carl Stamitz: Concertos for Flute And Oboe (1986)

Antonio Salieri, Domenico Cimarosa, Carl Stamitz: Concertos for Flute And Oboe (1986)
Aurèle Nicolet, flute; Heinz Holliger, oboe
Academy of St. Martin in the Fields; directed by Kenneth Sillito

EAC | FLAC | Image (Cue&Log) ~ 255 Mb | Mp3 (CBR320) ~ 144 Mb | Scans included
Genre: Classical | Label: Philips | # 416 359-2 | Time: 00:54:55

A cheerful little record, this, of three lightweight works played most exquisitely by very distinguished artists. In fact I am not sure that the chief distinction doesn't emanate from the orchestra: it is a while, as it happens, since I have heard the Academy of St Martin in the Fields and they seem to be playing here better than ever—sweet string tone, pure intonation, finely moulded phrasing, impeccably precise ensemble. Of the three works, the Cimarosa, written for two flutes (in which form it has several times been recorded), is the most attractive for its fluency, its melodiousness (the finale is a real charmer) and its elegant musical form; the Salieri seems by comparison rather carefully devised, though of course it has plenty of entertaining music. Carl Stamitz's piece takes itself more seriously, trying to be symphonic and taking less trouble about being tuneful—though the warm, galant slow movement makes very pleasing listening. The recorded sound is clear and true.

Review by Stanley Sadie, Gramophone [6/1986]

Aurele Nicolet, Heinz Holliger - Antonio Salieri, Domenico Cimarosa, Carl Stamitz: Concertos for Flute And Oboe (1986)



Aurele Nicolet, Heinz Holliger - Antonio Salieri, Domenico Cimarosa, Carl Stamitz: Concertos for Flute And Oboe (1986)



Aurèle Nicolet - flute
Heinz Holliger - oboe
Academy of St.Martin-in-the-Fields
Kenneth Sillito - conductor

Recorded: London, 6/1985

Tracklist:

Antonio Salieri (1750-1825):
Concerto in C major for Flute, Oboe and Orchestra
01. 1. Allegro spiritoso (7:01)
02. 2. Largo (6:46)
03. 3. Allegretto (5:22)

Domenico Cimarosa (1749-1801):
Concertante in G major for Flute, Oboe and Orchestra
04. 1. Allegro (9:22)
05. 2. Largo (3:48)
06. 3. Rondo (Allegretto ma non tanto) (4:07)

Carl Stamitz (1745-1801):
Concerto in G major for Flute, Oboe and Orchestra
07. 1. - (8:22)
08. 2. Adagio (4:07)
09. 3. Rondeau (6:00)


Exact Audio Copy V1.0 beta 3 from 29. August 2011

EAC extraction logfile from 31. May 2012, 19:47

Academy Of St. Martin-In-The-Fields / Salieri, Cimarosa, Stamitz - Konzerte für Flöte und Oboe - Nicolet, Holliger

Used drive : HL-DT-STDVDRAM GSA-H10A Adapter: 0 ID: 0

Read mode : Secure
Utilize accurate stream : Yes
Defeat audio cache : Yes
Make use of C2 pointers : No

Read offset correction : 667
Overread into Lead-In and Lead-Out : No
Fill up missing offset samples with silence : Yes
Delete leading and trailing silent blocks : No
Null samples used in CRC calculations : Yes
Used interface : Native Win32 interface for Win NT & 2000

Used output format : User Defined Encoder
Selected bitrate : 1024 kBit/s
Quality : High
Add ID3 tag : No
Command line compressor : C:\Program Files\Exact Audio Copy\Flac\flac.exe
Additional command line options : -8 -V -T "TITLE=%title%" -T "ARTIST=%artist%" -T "ALBUMARTIST=%albumartist%" -T "ALBUM=%albumtitle%" -T "DATE=%year%" -T "TRACKNUMBER=%tracknr%" -T "TRACKTOTAL=%numtracks%" -T "GENRE=%genre%" -T "COMMENT=%comment%" -T "PERFORMER=%albuminterpret%" -T "COMPOSER=%composer%" %source% -o %dest%


TOC of the extracted CD

Track | Start | Length | Start sector | End sector
––––––––––––––––––––––––––––-
1 | 0:00.33 | 7:01.00 | 33 | 31607
2 | 7:01.33 | 6:45.62 | 31608 | 62044
3 | 13:47.20 | 5:22.13 | 62045 | 86207
4 | 19:09.33 | 9:22.00 | 86208 | 128357
5 | 28:31.33 | 3:48.30 | 128358 | 145487
6 | 32:19.63 | 4:06.45 | 145488 | 163982
7 | 36:26.33 | 8:22.00 | 163983 | 201632
8 | 44:48.33 | 4:07.00 | 201633 | 220157
9 | 48:55.33 | 6:00.00 | 220158 | 247157


Range status and errors

Selected range

Filename F:\Ripped general\[0799] Salieri, Cimarosa, Stamitz - Konzerte für Flöte und Oboe - Nicolet, Holliger\Salieri, Cimarosa, Stamitz - Konzerte für Flöte und Oboe - Nicolet, Holliger.wav

Peak level 96.4 %
Extraction speed 2.0 X
Range quality 99.9 %
Test CRC 423B4A6F
Copy CRC 423B4A6F
Copy OK

No errors occurred


AccurateRip summary

Track 1 accurately ripped (confidence 7) [EC378796] (AR v1)
Track 2 accurately ripped (confidence 7) [4DBBCFAA] (AR v1)
Track 3 accurately ripped (confidence 7) [836D8FF8] (AR v1)
Track 4 accurately ripped (confidence 7) [7BF2E603] (AR v1)
Track 5 accurately ripped (confidence 7) [1201CA00] (AR v1)
Track 6 accurately ripped (confidence 7) [6CE9815C] (AR v1)
Track 7 accurately ripped (confidence 7) [43EBF55A] (AR v1)
Track 8 accurately ripped (confidence 7) [9049B5FA] (AR v1)
Track 9 accurately ripped (confidence 6) [210F14C3] (AR v1)

All tracks accurately ripped

End of status report

foobar2000 1.2 / Dynamic Range Meter 1.1.1
log date: 2017-06-14 22:32:55

––––––––––––––––––––––––––––––––––––––––
Analyzed: Kenneth Sillito & Academy Of St. Martin-In-The-Fields / Salieri, Cimarosa, Stamitz - Konzerte fur Flote und Oboe - Nicolet, Holliger
––––––––––––––––––––––––––––––––––––––––

DR Peak RMS Duration Track
––––––––––––––––––––––––––––––––––––––––
DR14 -2.02 dB -20.77 dB 7:01 01-Concerto in C-dur - 1. Allegro spiritoso
DR13 -3.04 dB -21.72 dB 6:46 02-Concerto in C-dur - 2. Largo
DR15 -0.32 dB -20.61 dB 5:22 03-Concerto in C-dur - 3. Allegretto
DR13 -0.68 dB -18.88 dB 9:22 04-Concertante in G-dur - 1. Allegro
DR13 -2.80 dB -21.01 dB 3:48 05-Concertante in G-dur - 2. Largo
DR12 -0.39 dB -18.09 dB 4:07 06-Concertante in G-dur - 3. Rondo (Allegretto ma non tanto)
DR14 -2.27 dB -20.74 dB 8:22 07-Concerto in G-dur - 1. -
DR12 -5.74 dB -22.16 dB 4:07 08-Concerto in G-dur - 2. Adagio
DR13 -5.06 dB -22.21 dB 6:00 09-Concerto in G-dur - 3. Rondeau
––––––––––––––––––––––––––––––––––––––––

Number of tracks: 9
Official DR value: DR13

Samplerate: 44100 Hz
Channels: 2
Bits per sample: 16
Bitrate: 603 kbps
Codec: FLAC
================================================================================

Aurele Nicolet, Heinz Holliger - Antonio Salieri, Domenico Cimarosa, Carl Stamitz: Concertos for Flute And Oboe (1986)

Aurele Nicolet, Heinz Holliger - Antonio Salieri, Domenico Cimarosa, Carl Stamitz: Concertos for Flute And Oboe (1986)

All thanks to odeonmusic

More interesting music in My Blog