Subcategories

Alberto Veronesi, Orchestra Guido Cantelli of Milan - Antonio Salieri: Falstaff (1998)

Posted By: ArlegZ
Alberto Veronesi, Orchestra Guido Cantelli of Milan - Antonio Salieri: Falstaff (1998)

Alberto Veronesi, Orchestra Guido Cantelli of Milan - Antonio Salieri: Falstaff (1998)
EAC | FLAC | Image (Cue & Log) ~ 667 Mb | Total time: 74:42+69:25 | Scans included
Classical | Label: Chandos | # CHAN 9613(2) | Recorded: 1997

By far the best opera based on Shakespeare's The Merry Wives of Windsor, is Verdi's Falstaff. But the lazy, cowardly, greedy, overweight, alcohol-soaked, sexually predatory, and somehow (despite everything) endearing antihero is big enough for more than one opera. Salieri's Falstaff is much simpler and smaller in scale than Verdi's, less inventive and energetic. But this is a sophisticated, funny, brightly performed treatment of Falstaff's attempt to woo two married women with identical love notes.
(Joe McLellan)

Performer:
Sir John Falstaff - Romano Franceshetto
Mistress Alice Ford - Lee Myeounghee
Mr Ford - Giuliano de Filippo
Mistress Slender - Chiara Calli
Mr Slender - Fernando Ciuffo
Bardolf - Filippo Bettoschi
Betty - Natalia Valli
The Madrigalists of Milan
Orchestra Guido Cantelli of Milan
Conductor - Alberto Veronesi

Track List:
CD1:
01. Overture. Allegro di controdanza"
02. Atto I. Scene I. Introduction 'Viva il comune amico' (Falstaff, Mrs. Ford, Mrs. Slender, Slender, Guests)
03. Scene I. 'Sia pur l'ultimo bicchiere' (Falstaff)
04. Scene I. 'Ma gia l'alba s'avvicina' (Mistress Ford)
05. Scene II. 'Vedete che capriccio' (Bardolf)
06. Scene II. Accompanied recitative 'Non reggo piu dal sonno' (Bardolf)
07. Scene III. Duet 'Con molta degnazione' (Falstaff, Bardolf)
08. Scene III. 'Da scrivere' (Falstaff)
09. Scene IV. 'Li porto o non li porto?' (Bardolf)
10. Scene V. Cavatina 'Vicino a rivedere' (Ford)
11. Scene VI. 'Oh, tinozzo ambulante!' (Mistress Slender)
12. Scene VI. Aria 'Vendetta, si vendetta' (Mistress Slender)
13. Scene VI. 'Comare, in questo punto' (Mistress Slender)
14. Scene VI. Duet 'La stessa, la stessissima' (Mistress Ford, Mistress Slender)
15. Scene VI. 'Ma parlando sul serio' (Mistress Slender)
16. Scene VII. 'Ho capito, ma spero che non sara poi vero' (Slender)
17. Scene VIII. Quartet 'Oh, quanto vogliam ridere' (Mistress Ford, Mistress Slender, Ford, Slender)
18. Scene IX. 'Eh! Mia moglie, compare' (Ford)
19. Scene IX. Aria 'Venga, venga pure il cavaliere' (Slender)
20. Scene X. 'A un uom della mia sorte' (Falstaff)
21. Scene XI. 'Guten morgen, mein Herr' (Mistress Ford)
22. Scene XI. Aria 'Oh, die Manner kenn ich schon' (Mistress Ford)
23. Scene XII. 'E che ti par, Falstaff?' (Falstaff)
24. Scene XII. Aria 'Nell'impero di Cupido' (Falstaff)
25. Scene XII. Accompanied recitative 'Ah, vile! Ah seduttore!' (Ford)
26. Scene XIII. 'Restate la vicini' (Mistress Ford)
27. Scene XIV. Finale 'Bricconcella, alfin t'ho colta' (Falstaff)
CD2:
01. Scene XIV. Finale 'Si. Son geloso a torto' (Ford)
02. Act II. Parte I. Scene I. 'Sentite pure' (Betty)
03. Scene I. Trio 'Nell'acqua il buzzone' (Betty, Mistress Ford, Mistress Slender)
04. Scene II. 'Ehi! Bardolfo! A chi dico?' (Falstaff)
05. Scene IV. Duet 'Ah, Signore, se sapesse' (Betty, Falstaff)
06. Scene IV. 'Si degni almen di legger questo foglio' (Betty)
07. Scene IV. Trio. 'Si mi vedeste il core' (Betty, Falstaff, Bardolf)
08. Scene V. 'E il nostro Signor Broch' (Falstaff)
09. Scene VII. 'Se un pranzo non vi basta' (Ford)
10. Scene VII. Accompanied recitative 'Che sento! E quando ei venne' (Ford, Falstaff)
11. Scene VII. Cavatina 'Nella stanza in un cantone' (Falstaff, Ford)
12. Scene VII. Cavatina 'Io, sotto titolo di roba sudicia' (Falstaff)
13. Scene VII. 'Signor, son penetrato del piu vivo dolor' (Ford)
14. Scene VIII. Accompanied recitative 'Stelle sogno o son desto?' (Falstaff)
15. Scene IX. Duet 'Su, mio core, a gioir ti prepara!' (Mistress Ford, Falstaff)
16. Scene X. 'Ma siam sicuri?' (Falstaff)
17. Scene XI. 'Siete sola?' (Mistress Slender)
18. Scene XI. Trio 'Primo ancor che Mastro venga' (Mistress Ford, Mistress Slender, Falstaff)
19. Scene XI. 'Ma dunque, care amiche?' (Fastaff)
20. Scene XIII. Accompanied recitative 'Ecco, amici! Ah! Ribaldo!' (Ford)
21. Scene XIII. Ensemble 'Che vedo! Oh, me infelice!' (Betty, Mistress Ford, Mistress Slender, Ford, Slender)
22. Scene XIII. 'Orben, colui che cerco' (Ford)
23. Scene XIII. Duet 'Benedetto quel bastone' (Mistress Ford, Mistress Slender)
24. Scene XIV. Aria 'Sorte pettegola, meco la vuoi' (Falstaff)
25. Scene XV. 'Se in Londra si sapessero le mie delusioni' (Falstaff)
26. Scene XV. Aria 'La sua fede si gradita' (Ford)
27. Scene XV. Arietta 'Sorte pettegola, meco la vuoi' (Falstaff, Ford)
28. Scene XVI. 'Che dici?' (Falstaff)
29. Scene XVI. 'Consolatevi amico' (Falstaff)
30. Parte II. Scene XVII. Aria 'Reca in amor la gelosia' (Slender)
31. Scene XVII. Finale 'Siete gia qui' (Mistress Ford, Mistress Slender, Falstaff)
32. Scene XVII. 'Fate verdi, turchine e bianche e nere' (Mistress Ford)


Exact Audio Copy V1.0 beta 3 from 29. August 2011

EAC extraction logfile from 19. August 2017, 16:05

Alberto Veronesi, Orchestra Guido Cantelli of Milan / Salieri - Falstaff CD1

Used drive : HL-DT-STDVDRAM GH24NS95 Adapter: 0 ID: 0

Read mode : Secure
Utilize accurate stream : Yes
Defeat audio cache : Yes
Make use of C2 pointers : No

Read offset correction : 6
Overread into Lead-In and Lead-Out : No
Fill up missing offset samples with silence : Yes
Delete leading and trailing silent blocks : No
Null samples used in CRC calculations : Yes
Used interface : Native Win32 interface for Win NT & 2000

Used output format : User Defined Encoder
Selected bitrate : 128 kBit/s
Quality : High
Add ID3 tag : No
Command line compressor : C:\Program Files\Exact Audio Copy\Flac\flac.exe
Additional command line options : -V -8 -T "Date=%year%" -T "Genre=%genre%" %source%


TOC of the extracted CD

Track | Start | Length | Start sector | End sector
––––––––––––––––––––––––––––-
1 | 0:00.00 | 4:14.25 | 0 | 19074
2 | 4:14.25 | 3:17.10 | 19075 | 33859
3 | 7:31.35 | 2:54.25 | 33860 | 46934
4 | 10:25.60 | 1:58.55 | 46935 | 55839
5 | 12:24.40 | 0:49.30 | 55840 | 59544
6 | 13:13.70 | 5:00.10 | 59545 | 82054
7 | 18:14.05 | 2:23.50 | 82055 | 92829
8 | 20:37.55 | 3:19.50 | 92830 | 107804
9 | 23:57.30 | 0:44.12 | 107805 | 111116
10 | 24:41.42 | 3:18.20 | 111117 | 125986
11 | 27:59.62 | 0:45.35 | 125987 | 129396
12 | 28:45.22 | 2:01.65 | 129397 | 138536
13 | 30:47.12 | 0:50.08 | 138537 | 142294
14 | 31:37.20 | 1:12.40 | 142295 | 147734
15 | 32:49.60 | 0:51.42 | 147735 | 151601
16 | 33:41.27 | 1:25.65 | 151602 | 158041
17 | 35:07.17 | 4:59.73 | 158042 | 180539
18 | 40:07.15 | 0:54.40 | 180540 | 184629
19 | 41:01.55 | 3:19.27 | 184630 | 199581
20 | 44:21.07 | 0:57.10 | 199582 | 203866
21 | 45:18.17 | 1:41.65 | 203867 | 211506
22 | 47:00.07 | 3:14.03 | 211507 | 226059
23 | 50:14.10 | 3:56.12 | 226060 | 243771
24 | 54:10.22 | 3:19.65 | 243772 | 258761
25 | 57:30.12 | 5:22.00 | 258762 | 282911
26 | 62:52.12 | 2:05.38 | 282912 | 292324
27 | 64:57.50 | 7:45.25 | 292325 | 327224


Range status and errors

Selected range

Filename C:\Salieri - Falstaff CD1.wav

Peak level 100.0 %
Extraction speed 3.6 X
Range quality 100.0 %
Test CRC B9E5E73C
Copy CRC B9E5E73C
Copy OK

No errors occurred

End of status report

==== Log checksum 3D52FDF132EB00821F95CADA38791B637DC36468D3EC9541127934216A5390D4 ====


Exact Audio Copy V1.0 beta 3 from 29. August 2011

EAC extraction logfile from 19. August 2017, 16:29

Alberto Veronesi, Orchestra Guido Cantelli of Milan / Salieri - Falstaff CD2

Used drive : HL-DT-STDVDRAM GH24NS95 Adapter: 0 ID: 0

Read mode : Secure
Utilize accurate stream : Yes
Defeat audio cache : Yes
Make use of C2 pointers : No

Read offset correction : 6
Overread into Lead-In and Lead-Out : No
Fill up missing offset samples with silence : Yes
Delete leading and trailing silent blocks : No
Null samples used in CRC calculations : Yes
Used interface : Native Win32 interface for Win NT & 2000

Used output format : User Defined Encoder
Selected bitrate : 128 kBit/s
Quality : High
Add ID3 tag : No
Command line compressor : C:\Program Files\Exact Audio Copy\Flac\flac.exe
Additional command line options : -V -8 -T "Date=%year%" -T "Genre=%genre%" %source%


TOC of the extracted CD

Track | Start | Length | Start sector | End sector
––––––––––––––––––––––––––––-
1 | 0:00.00 | 8:34.47 | 0 | 38596
2 | 8:34.47 | 0:48.73 | 38597 | 42269
3 | 9:23.45 | 2:46.45 | 42270 | 54764
4 | 12:10.15 | 2:21.40 | 54765 | 65379
5 | 14:31.55 | 0:58.45 | 65380 | 69774
6 | 15:30.25 | 0:39.57 | 69775 | 72756
7 | 16:10.07 | 3:27.18 | 72757 | 88299
8 | 19:37.25 | 0:59.22 | 88300 | 92746
9 | 20:36.47 | 1:21.65 | 92747 | 98886
10 | 21:58.37 | 1:12.45 | 98887 | 104331
11 | 23:11.07 | 1:28.73 | 104332 | 111004
12 | 24:40.05 | 0:41.60 | 111005 | 114139
13 | 25:21.65 | 1:20.22 | 114140 | 120161
14 | 26:42.12 | 2:23.43 | 120162 | 130929
15 | 29:05.55 | 2:48.25 | 130930 | 143554
16 | 31:54.05 | 1:02.60 | 143555 | 148264
17 | 32:56.65 | 1:38.25 | 148265 | 155639
18 | 34:35.15 | 1:03.45 | 155640 | 160409
19 | 35:38.60 | 2:39.52 | 160410 | 172386
20 | 38:18.37 | 0:33.65 | 172387 | 174926
21 | 38:52.27 | 2:51.68 | 174927 | 187819
22 | 41:44.20 | 1:43.52 | 187820 | 195596
23 | 43:27.72 | 0:49.48 | 195597 | 199319
24 | 44:17.45 | 1:35.05 | 199320 | 206449
25 | 45:52.50 | 0:57.32 | 206450 | 210756
26 | 46:50.07 | 1:37.33 | 210757 | 218064
27 | 48:27.40 | 0:55.42 | 218065 | 222231
28 | 49:23.07 | 1:08.18 | 222232 | 227349
29 | 50:31.25 | 1:02.62 | 227350 | 232061
30 | 51:34.12 | 2:53.65 | 232062 | 245101
31 | 54:28.02 | 7:25.15 | 245102 | 278491
32 | 61:53.17 | 7:32.38 | 278492 | 312429


Range status and errors

Selected range

Filename C:\Salieri - Falstaff CD2.wav

Peak level 100.0 %
Extraction speed 8.4 X
Range quality 100.0 %
Test CRC 8C50695C
Copy CRC 8C50695C
Copy OK

No errors occurred

End of status report

==== Log checksum 0DF9803DF05969CA8877DCF2BB163761D5FF78174CAB2F4AA6988EDD780A3B6C ====

Alberto Veronesi, Orchestra Guido Cantelli of Milan - Antonio Salieri: Falstaff (1998)
Alberto Veronesi, Orchestra Guido Cantelli of Milan - Antonio Salieri: Falstaff (1998)