Subcategories

Werner Ehrhardt, L'arte del mondo - Salieri: La scuola de' gelosi [2016]

Posted By: Vilboa
Werner Ehrhardt, L'arte del mondo - Salieri: La scuola de' gelosi [2016]

Salieri - La scuola de' gelosi (Werner Ehrhardt) [2016]
Classical | Deutsche Harmonia Mundi 88985332282 | TT: 69.19+57.42+34.13 | EAC (flac, cue, log) | Covers | 707 Mb

In its day La scuola de’ gelosi (1778) was one of the best-known comic operas by Antonio Salieri (1750–1825), remaining a box-office hit for decades. All the more astonishing is the fact that it could sink into obscurity. Even Goethe was excited by this masterpiece: “The opera is the audience’s favourite, and the audience is right. It contains an astonishing richness and variety, and the subject is treated with the most exquisite taste. I was moved by every aria.” In the wake of its world premiere in Venice in 1778, La scuola de’ gelosi was performed in opera houses all over Europe, from Dresden, Vienna, Prague and Paris to cities as far away as London and St Petersburg, before it passed into near-oblivion.
Not until well over two centuries later did Werner Ehrhardt and his ensemble, l’arte del mondo, rediscover this musical treasure. Their world-premiere recording affords impressive proof of Salieri’s abilities and explores his shrewd delineation of character, whereby jealousy repeatedly rears its head in ever-new guises.
“A new opera bubbling over with playfulness and with a libretto filled with sparkling wit” (WDR)

Cast:
Conte - Emanuele d'Aguanno
Contessa - Francesca Lombardi Mazzulli
Blasio - Federico Sacchi
Ernestina - Roberta Mameli
Lumaca - Florian Götz
Carlotta - Milena Storti
Tenente - Patrick Vogel
L'arte del mondo
Conductor - Werner Ehrhardt


CD1:
01. Atto I. Sinfonia
02. Introduzione: Zitto! Alcun sentir mi parve (Carlotta, Lumaca, Blasio)
03. Recitativo: Il padron! (Lumaca, Blasio, Carlotta)
04. Aria: Gelosia d'amore (Carlotta)
05. Recitativo: Già male si consiglia (Blasio, Lumaca)
06. Aria: Una donna che affetto non sente (Lumaca)
07. Recitativo: A burlami io la sfido (Blasio, Carlotta)
08. Recitativo: Signora padroncina (Carlotta, Ernestina, Blasio)
09. Recitativo: Signorina… Signore (Blasio, Ernestina)
10. Duettino: Al gran Can di Tartaria (Ernestina, Blasio)
11. Cavatina: Ah, non è ver che in seno (Contessa)
12. Recitativo: Io serventi non ho (Contessa)
13. Cavatina: A me par che il mondo sia (Conte)
14. Recitativo: Ma quale agli occhi miei (Conte, Contessa)
15. Recitativo: Madama… Vi son serva (Conte, Contessa, Tenente)
16. Terzetto: Eh via, saggia Penelope (Contessa, Tenente, Conte)
17. Recitativo: Poverina! Ella v'ama (Tenente, Conte)
18. Recitativo: Oh povera Contessa! (Tenente)
19. Aria: Ah, non siate ognor sì facili (Tenente)
20. Recitativo: Chiudermi in casa! (Ernestina, Lumaca)
21. Recitativo: Il Conte spera d"introdursi in casa (Ernestina, Blasio, Carlotta)
22. Recitativo: Signori, con permesso (Conte, Blasio, Ernestina)
23. Aria: Fate buona compagnia (Blasio)
24. Recitativo: Una finta querela (Conte, Ernestina, Carlotta, Lumaca)
25. Recitativo: Converrà ch'io la cerchi (Blasio, Ernestina, Conte)
26. Aria: Chi può vedere oppresso (Conte)
27. Recitativo: Brava! Brava! Ha ragione il signor Conte (Blasio, Ernestina)
28. Aria: Se verrete a me vicino (Ernestina)
29. Recitativo: Polito! Vera moglie! (Blasio, Carlotta)
30. Recitativo: Carlotta, la mantiglia (Ernestina, Carlotta, Lumaca)
31. Recitativo: Addio, bella Ernestina (Conte, Ernestina)
32. Recitativo: Chiudete ben, gelosi (Lumaca, Carlotta)
33. Recitativo: La donna quando vuol già ve la fa! (Blasio, Contessa, Carlotta, Lumaca)
34. Recitativo: Dimmi, tu, mio marito (Contessa, Carlotta)
35. Aria: Gelosia, dispetto e sdegno (Contessa)
CD2
01. Recitativo: Con mille smanie al core (Blasio, Lumaca)
02. Finale primo: Son le donne sopraffine
03. Atto II. Recitativo: Sono a tavola ancora? (Lumaca, Carlotta)
04. Aria: Il cor nel seno balzar mi sento (Carlotta)
05. Recitativo: Vammi a genio costei (Lumaca)
06. Aria: Lumaca, giudizio! (Lumaca)
07. Recitativo: Tenente, è ben sciapito (Conte, Tenente, Contessa, Blasio)
08. Duettino: Quel visino è da ritratto (Contessa, Conte)
09. Recitativo: Udite, Contessina (Tenente, Blasio, Contessa)
10. Recitativo: Sarà bello il progetto (Tenente, Blasio, Lumaca)
11. Aria: Chi vuol nella femmina (Tenente)
12. Recitativo: Ricordati, Lumaca (Blasio, Lumaca, Ernestina)
13. Aria: Queste donne sussiegate (Ernestina)
14. Recitativo: Ti par ch'ella fremesse? (Blasio, Lumaca)
15. Aria: Adagio… allor potrei (Blasio)
16. Cavatina: Cattivo segno, sposine amabili (Ernestina)
17. Recitativo: Infido! Un ritrattino! (Ernestina, Contessa)
18. Recitativo: Fate quel che vi dissi (Tenente, Blasio, Ernestina, Conte, Contessa)
19. Quintetto: Ah! La rabbia mi divora (Contessa, Ernestina, Conte, Tenente, Blasio)
CD3
01. Recitativo: Signori, con permesso (Ernestina, Blasio)
02. Recitativo: A me nasce il sospetto (Ernestina, Conte, Contessa, Tenente)
03. Recitativo: Or la cagion capisco (Conte, Contessa, Tenente)
04. Aria: Più sereni quegli occhi volgete (Conte)
05. Recitativo: Ah, traditor! (Contessa, Tenente)
06. Recitativo: Cosa comanda? (Carlotta, Contassa, Tenente)
07. Accompagnato: Or ei con Ernestina (Contessa)
08. Aria: Ah, sia già de' miei sospiri (Contessa)
09. Recitativo: E il Conte ancor non torna (Ernestina)
10. Recitativo: Amico traditore! (Conte)
11. Finale secondo: Mia bella Ernestina


Exact Audio Copy V1.0 beta 3 from 29. August 2011

EAC extraction logfile from 22. April 2017, 16:19

Werner Ehrhardt, L'Arte del Mondo / Salieri - La scuola de' gelosi CD1

Used drive : PIONEER BD-RW BDR-207M Adapter: 0 ID: 0

Read mode : Secure
Utilize accurate stream : Yes
Defeat audio cache : Yes
Make use of C2 pointers : No

Read offset correction : 667
Overread into Lead-In and Lead-Out : No
Fill up missing offset samples with silence : Yes
Delete leading and trailing silent blocks : No
Null samples used in CRC calculations : Yes
Used interface : Native Win32 interface for Win NT & 2000

Used output format : User Defined Encoder
Selected bitrate : 128 kBit/s
Quality : High
Add ID3 tag : No
Command line compressor : C:\Program Files\Exact Audio Copy\Flac\flac.exe
Additional command line options : -V -8 -T "Date=%year%" -T "Genre=%genre%" %source%


TOC of the extracted CD

Track | Start | Length | Start sector | End sector
––––––––––––––––––––––––––––-
1 | 0:00.00 | 3:07.73 | 0 | 14097
2 | 3:07.73 | 2:29.25 | 14098 | 25297
3 | 5:37.23 | 1:55.53 | 25298 | 33975
4 | 7:33.01 | 2:06.19 | 33976 | 43444
5 | 9:39.20 | 1:37.04 | 43445 | 50723
6 | 11:16.24 | 2:42.33 | 50724 | 62906
7 | 13:58.57 | 0:36.60 | 62907 | 65666
8 | 14:35.42 | 1:39.06 | 65667 | 73097
9 | 16:14.48 | 0:59.64 | 73098 | 77586
10 | 17:14.37 | 2:22.22 | 77587 | 88258
11 | 19:36.59 | 2:37.33 | 88259 | 100066
12 | 22:14.17 | 1:04.57 | 100067 | 104923
13 | 23:18.74 | 2:51.69 | 104924 | 117817
14 | 26:10.68 | 1:08.38 | 117818 | 122955
15 | 27:19.31 | 1:32.34 | 122956 | 129889
16 | 28:51.65 | 5:22.06 | 129890 | 154045
17 | 34:13.71 | 1:26.23 | 154046 | 160518
18 | 35:40.19 | 0:49.12 | 160519 | 164205
19 | 36:29.31 | 3:25.29 | 164206 | 179609
20 | 39:54.60 | 0:37.44 | 179610 | 182428
21 | 40:32.29 | 1:27.14 | 182429 | 188967
22 | 41:59.43 | 2:15.30 | 188968 | 199122
23 | 44:14.73 | 3:38.16 | 199123 | 215488
24 | 47:53.14 | 0:56.51 | 215489 | 219739
25 | 48:49.65 | 1:49.71 | 219740 | 227985
26 | 50:39.61 | 3:13.09 | 227986 | 242469
27 | 53:52.70 | 1:09.34 | 242470 | 247678
28 | 55:02.29 | 3:18.31 | 247679 | 262559
29 | 58:20.60 | 0:58.02 | 262560 | 266911
30 | 59:18.62 | 1:08.19 | 266912 | 272030
31 | 60:27.06 | 0:46.10 | 272031 | 275490
32 | 61:13.16 | 0:46.01 | 275491 | 278941
33 | 61:59.17 | 2:08.27 | 278942 | 288568
34 | 64:07.44 | 1:15.52 | 288569 | 294245
35 | 65:23.21 | 3:53.57 | 294246 | 311777


Range status and errors

Selected range

Filename C:\Salieri - La scuola de' gelosi CD1.wav

Peak level 94.4 %
Extraction speed 7.3 X
Range quality 100.0 %
Test CRC 14F09DCD
Copy CRC 14F09DCD
Copy OK

No errors occurred

End of status report

==== Log checksum FA6B8287F35CDF133642089C81D2488121DAF822C6A759C16A8BF85EFBD5974C ====


Exact Audio Copy V1.0 beta 3 from 29. August 2011

EAC extraction logfile from 22. April 2017, 16:44

Werner Ehrhardt, L'Arte del Mondo / Salieri - La scuola de' gelosi CD2

Used drive : PIONEER BD-RW BDR-207M Adapter: 0 ID: 0

Read mode : Secure
Utilize accurate stream : Yes
Defeat audio cache : Yes
Make use of C2 pointers : No

Read offset correction : 667
Overread into Lead-In and Lead-Out : No
Fill up missing offset samples with silence : Yes
Delete leading and trailing silent blocks : No
Null samples used in CRC calculations : Yes
Used interface : Native Win32 interface for Win NT & 2000

Used output format : User Defined Encoder
Selected bitrate : 128 kBit/s
Quality : High
Add ID3 tag : No
Command line compressor : C:\Program Files\Exact Audio Copy\Flac\flac.exe
Additional command line options : -V -8 -T "Date=%year%" -T "Genre=%genre%" %source%


TOC of the extracted CD

Track | Start | Length | Start sector | End sector
––––––––––––––––––––––––––––-
1 | 0:00.00 | 1:18.73 | 0 | 5922
2 | 1:18.73 | 12:50.22 | 5923 | 63694
3 | 14:09.20 | 1:54.52 | 63695 | 72296
4 | 16:03.72 | 2:26.03 | 72297 | 83249
5 | 18:30.00 | 0:34.10 | 83250 | 85809
6 | 19:04.10 | 2:15.54 | 85810 | 95988
7 | 21:19.64 | 7:11.24 | 95989 | 128337
8 | 28:31.13 | 2:46.35 | 128338 | 140822
9 | 31:17.48 | 1:42.03 | 140823 | 148475
10 | 32:59.51 | 1:31.64 | 148476 | 155364
11 | 34:31.40 | 3:20.49 | 155365 | 170413
12 | 37:52.14 | 3:16.23 | 170414 | 185136
13 | 41:08.37 | 2:46.11 | 185137 | 197597
14 | 43:54.48 | 0:52.08 | 197598 | 201505
15 | 44:46.56 | 3:29.35 | 201506 | 217215
16 | 48:16.16 | 1:03.73 | 217216 | 222013
17 | 49:20.14 | 0:42.67 | 222014 | 225230
18 | 50:03.06 | 1:46.23 | 225231 | 233203
19 | 51:49.29 | 6:18.00 | 233204 | 261553


Range status and errors

Selected range

Filename C:\Salieri - La scuola de' gelosi CD2.wav

Peak level 94.4 %
Extraction speed 7.2 X
Range quality 100.0 %
Test CRC 4AE6DA02
Copy CRC 4AE6DA02
Copy OK

No errors occurred

End of status report

==== Log checksum 60536AABF03A5F406AC2399CC0846F2168660BC6BF9587F2F33DD170DBB18386 ====


Exact Audio Copy V1.0 beta 3 from 29. August 2011

EAC extraction logfile from 22. April 2017, 17:00

Werner Ehrhardt, L'Arte del Mondo / Salieri - La scuola de' gelosi CD3

Used drive : PIONEER BD-RW BDR-207M Adapter: 0 ID: 0

Read mode : Secure
Utilize accurate stream : Yes
Defeat audio cache : Yes
Make use of C2 pointers : No

Read offset correction : 667
Overread into Lead-In and Lead-Out : No
Fill up missing offset samples with silence : Yes
Delete leading and trailing silent blocks : No
Null samples used in CRC calculations : Yes
Used interface : Native Win32 interface for Win NT & 2000

Used output format : User Defined Encoder
Selected bitrate : 128 kBit/s
Quality : High
Add ID3 tag : No
Command line compressor : C:\Program Files\Exact Audio Copy\Flac\flac.exe
Additional command line options : -V -8 -T "Date=%year%" -T "Genre=%genre%" %source%


TOC of the extracted CD

Track | Start | Length | Start sector | End sector
––––––––––––––––––––––––––––-
1 | 0:00.00 | 0:22.14 | 0 | 1663
2 | 0:22.14 | 0:44.64 | 1664 | 5027
3 | 1:07.03 | 1:01.11 | 5028 | 9613
4 | 2:08.14 | 3:09.28 | 9614 | 23816
5 | 5:17.42 | 0:21.26 | 23817 | 25417
6 | 5:38.68 | 1:27.64 | 25418 | 32006
7 | 7:06.57 | 2:16.26 | 32007 | 42232
8 | 9:23.08 | 6:09.09 | 42233 | 69916
9 | 15:32.17 | 1:03.45 | 69917 | 74686
10 | 16:35.62 | 0:51.03 | 74687 | 78514
11 | 17:26.65 | 16:55.58 | 78515 | 154697


Range status and errors

Selected range

Filename C:\Salieri - La scuola de' gelosi CD3.wav

Peak level 94.4 %
Extraction speed 6.4 X
Range quality 100.0 %
Test CRC 95A728D5
Copy CRC 95A728D5
Copy OK

No errors occurred

End of status report

==== Log checksum C7E5E817F8D42490EE1728281AD28E5411BC8BCBDCFE71544019058072A1D726 ====