Subcategories

Budapest Strings - Salieri: Symphony "La Veneziana", Concertos [2011/1994]

Posted By: Vilboa
Budapest Strings - Salieri: Symphony "La Veneziana", Concertos [2011/1994]

Salieri - Symphony "La Veneziana", Concertos (Budapest Strings) [2011/1994]
Classical | Capriccio 5087 | TT: 53.40 | EAC (FLAC, cue, log) | Covers | 233 Mb

Though often ignored, underplayed, or even reviled, Antonio Salieri is a brilliant composer who deserves to be honored among all the great composers, including his student W.A. Mozart. Fortunately, the Budapest Strings do Salieri's compositions justice on this bright, cheerful album of three works for chamber orchestra. Salieri's Concerto for oboe, violin, cello, and orchestra is simply lovely. Beginning with a bright, full, assured sound from the orchestra, it invites the listener on a musical journey that is never less than engaging. The soloists play beautifully together, never missing a note. The violinist has a solid core to his sound; it is especially notable in the Cantabile, which is richly textured, even for a slow movement. Each instrument's voice in the orchestra is carefully shaped, and this brings out the counterpoint and various lines in the music. Certainly, the syncopation before the end of the second movement is a bit odd, but Salieri compensates by giving the listener an elegant, concluding movement. The recording quality is excellent, and the musicians come across as confident and assured without being aggressive. The second work on the album is a double concerto with orchestra. One can hear the bow attacks in the sprightly beginning, contrasting with the fluid agility of the flute and the pinpoint precision of the oboe. All the accents are accurately observed, and the orchestra plays with vigor. The stately Largo that follows maintains a nice pulsing feel underneath the soloists' lines. The flute and oboe play in perfect unison in the Allegretto, with a sense of playfulness. The oboe's articulation is clear, and he, too, is confident and solid in his technique. Oddly, it is the title tracks that are the least noteworthy on this album, though they are certainly well done. One might hear echoes of The Marriage of Figaro in the beginning of La Veneziana, where the strings play together wonderfully. Actually, perhaps it is more accurate to say that the spirit of The Marriage of Figaro drew on inspiration from the teacher. Conductor Bánfalvi draws out an Andantino grazioso that is never dull or motionless (something that often happens in slower movements of orchestral works). All of this raises an inevitable yet perhaps unfair question: how does Salieri's work differ from Mozart's? One might say that this music feels more mature and textured, whereas the latter very often placed a strong emphasis on melody. But it is best to simply evaluate Salieri's works on their own terms, and if these pieces are representative, they are impressive. (V. Vasan)

Cast:
Lajos Lencsés, oboe
János Bálint, flute
Béla Bánfalvi, violin
Károly Botvay, cello
Budapest Strings

Track List:
Concerto for oboe, violin, cello and orchestra in D major "Triple Concerto"
01. I. Allegro moderato
02. II. Cantabile
03. III. Andantino
Concerto for flute, oboe and orchestra in C major
04. I. Allegro spirituoso
05. II. Largo
06. III. Allegretto
Symphony in D major for chamber orchestra "La Veneziana"
07. I. Allegro assai
08. II. Andantino grazioso
09. III. Presto


Exact Audio Copy V1.0 beta 3 from 29. August 2011

EAC extraction logfile from 26. July 2017, 11:47

Budapest Strings / Salieri - La Veneziana - Konzerte

Used drive : PIONEER BD-RW BDR-207M Adapter: 0 ID: 0

Read mode : Secure
Utilize accurate stream : Yes
Defeat audio cache : Yes
Make use of C2 pointers : No

Read offset correction : 667
Overread into Lead-In and Lead-Out : No
Fill up missing offset samples with silence : Yes
Delete leading and trailing silent blocks : No
Null samples used in CRC calculations : Yes
Used interface : Native Win32 interface for Win NT & 2000

Used output format : User Defined Encoder
Selected bitrate : 128 kBit/s
Quality : High
Add ID3 tag : No
Command line compressor : C:\Program Files\Exact Audio Copy\Flac\flac.exe
Additional command line options : -V -8 -T "Date=%year%" -T "Genre=%genre%" %source%


TOC of the extracted CD

Track | Start | Length | Start sector | End sector
––––––––––––––––––––––––––––-
1 | 0:00.00 | 9:17.05 | 0 | 41779
2 | 9:17.05 | 7:14.70 | 41780 | 74399
3 | 16:32.00 | 8:40.00 | 74400 | 113399
4 | 25:12.00 | 7:13.53 | 113400 | 145927
5 | 32:25.53 | 7:02.50 | 145928 | 177627
6 | 39:28.28 | 5:02.47 | 177628 | 200324
7 | 44:31.00 | 3:46.73 | 200325 | 217347
8 | 48:17.73 | 2:57.50 | 217348 | 230672
9 | 51:15.48 | 2:24.72 | 230673 | 241544


Range status and errors

Selected range

Filename C:\Salieri - La Veneziana - Konzerte.wav

Peak level 92.6 %
Extraction speed 4.4 X
Range quality 100.0 %
Test CRC 1693BF00
Copy CRC 1693BF00
Copy OK

No errors occurred

End of status report

==== Log checksum CFDC292461EF86FA6C1F6770D78BD53179B3FD28019A6633704C497AAB198BE7 ====