Subcategories
Tags
Language
Tags

Sam Brown - Box (1997)

Posted By: popsakov
Sam Brown - Box (1997)

Sam Brown - Box (1997)
EAC Rip | FLAC (Img) + Cue + Log ~ 325 Mb | MP3 CBR320 ~ 134 Mb
Full Scans | 00:49:10 | RAR 5% Recovery
Pop Rock, Adult Alternative Rock | Demon Records #FIENDCD 789

When she delivered Box, Sam Brown had long since disappeared from the pop spotlight. It was nearly ten years since the hit single "Stop," and while she had continued to tour and record, her audience had shrunk substantially. That's too bad, because Box is arguably her best effort yet. Brown has always been a fine vocalist, but her material can be uneven. As Box illustrates, she's developed into a first-rate songwriter, capable of crafting melodic, memorable songs with true emotion and depth. It's mature pop with many layers and levels, and while that may limit its audience, those that want to seek it out will be pleasantly surprised by the strength of Box.

~ Stephen Thomas Erlewine, All Music
Sam Brown - Box (1997)


***************

Sam Brown - Box (1997)

Track List:

01. Box [3:01]
02. Ebb And Flow [3:47]
03. Whisper [4:46]
04. I Forgive You [5:32]
05. They're The Ones [4:52]
06. Liberty In Reality [3:46]
07. Embrace The Darkness [4:48]
08. T. O. E. S. [4:29]
09. Intuition [4:56]
10. As The Crow Flies [4:24]
11. What's The Use? [2:49]
12. Bert And Flo [2:01]

Exact Audio Copy V0.99 prebeta 5 from 4. May 2009

Отчёт EAC об извлечении, выполненном 20. декабря 2009, 2:36

Sam Brown / Box

Дисковод: Optiarc DVD RW AD-7203A Adapter: 1 ID: 1

Режим чтения : Достоверность
Использование точного потока : Да
Отключение кэша аудио : Да
Использование указателей C2 : Нет

Коррекция смещения при чтении : 48
Способность читать области Lead-in и Lead-out : Нет
Заполнение пропущенных сэмплов тишиной : Да
Удаление блоков с тишиной в начале и конце : Нет
При вычислениях CRC использовались нулевые сэмплы : Да
Интерфейс : Установленный внешний ASPI-интерфейс

Выходной формат : Внутренние WAV-операции
Формат сэмплов : 44.100 Гц; 16 бит; стерео


TOC извлечённого CD

Трек | Старт | Длительность | Начальный сектор | Конечный сектор
––––––––––––––––––––––––––––––––––-
1 | 0:00.00 | 3:01.27 | 0 | 13601
2 | 3:01.27 | 3:46.60 | 13602 | 30611
3 | 6:48.12 | 4:45.45 | 30612 | 52031
4 | 11:33.57 | 5:32.15 | 52032 | 76946
5 | 17:05.72 | 4:52.00 | 76947 | 98846
6 | 21:57.72 | 3:45.38 | 98847 | 115759
7 | 25:43.35 | 4:47.45 | 115760 | 137329
8 | 30:31.05 | 4:29.02 | 137330 | 157506
9 | 35:00.07 | 4:56.25 | 157507 | 179731
10 | 39:56.32 | 4:23.40 | 179732 | 199496
11 | 44:19.72 | 2:49.15 | 199497 | 212186
12 | 47:09.12 | 2:01.08 | 212187 | 221269


Характеристики диапазона извлечения и сообщения об ошибках

Выбранный диапазон

Имя файла E:\LOSSLESS\sam brown - discography\07. Box '1997\Sam Brown - Box.wav

Пиковый уровень 100.0 %
Качество диапазона 100.0 %
CRC копии 23F629C5
Копирование… OK

Ошибок не произошло


AccurateRip: сводка

Трек 1 точное извлечение (доверие 16) [009A6778]
Трек 2 точное извлечение (доверие 16) [D1C17F1F]
Трек 3 точное извлечение (доверие 16) [7F901A5E]
Трек 4 точное извлечение (доверие 16) [3727C62D]
Трек 5 точное извлечение (доверие 16) [DF152DAB]
Трек 6 точное извлечение (доверие 16) [7F30CFE2]
Трек 7 точное извлечение (доверие 16) [DA808690]
Трек 8 точное извлечение (доверие 16) [98751562]
Трек 9 точное извлечение (доверие 16) [C35D401E]
Трек 10 точное извлечение (доверие 16) [1EEA5D52]
Трек 11 точное извлечение (доверие 16) [AB88F3CA]
Трек 12 точное извлечение (доверие 16) [17DEEA91]

Все треки извлечены точно

Конец отчёта

foobar2000 1.3.16 / Dynamic Range Meter 1.1.1
log date: 2018-05-09 02:31:39

––––––––––––––––––––––––––––––––––––––––
Analyzed: Sam Brown / Box
––––––––––––––––––––––––––––––––––––––––

DR Peak RMS Duration Track
––––––––––––––––––––––––––––––––––––––––
DR9 0.00 dB -11.71 dB 3:01 01-Box
DR8 0.00 dB -9.83 dB 3:47 02-Ebb And Flow
DR10 0.00 dB -12.15 dB 4:46 03-Whisper
DR8 0.00 dB -11.54 dB 5:32 04-I Forgive You
DR10 0.00 dB -11.24 dB 4:52 05-They're The Ones
DR10 0.00 dB -11.75 dB 3:46 06-Liberty In Reality
DR11 0.00 dB -15.49 dB 4:48 07-Embrace The Darkness
DR9 0.00 dB -12.75 dB 4:29 08-T. O. E. S.
DR8 0.00 dB -11.19 dB 4:56 09-Intuition
DR9 0.00 dB -10.59 dB 4:24 10-As The Crow Flies
DR8 0.00 dB -9.54 dB 2:49 11-What's The Use?
DR11 0.00 dB -14.99 dB 2:01 12-Bert And Flo
––––––––––––––––––––––––––––––––––––––––

Number of tracks: 12
Official DR value: DR9

Samplerate: 44100 Hz
Channels: 2
Bits per sample: 16
Bitrate: 835 kbps
Codec: FLAC
================================================================================

[CUETools log; Date: 09.05.2018 2:31:12; Version: 2.1.6]
[CTDB TOCID: CH0cuaGJuqOD74oYVbOdIWVkRPI-] found.
Track | CTDB Status
1 | (45/45) Accurately ripped
2 | (45/45) Accurately ripped
3 | (45/45) Accurately ripped
4 | (45/45) Accurately ripped
5 | (45/45) Accurately ripped
6 | (45/45) Accurately ripped
7 | (45/45) Accurately ripped
8 | (45/45) Accurately ripped
9 | (45/45) Accurately ripped
10 | (45/45) Accurately ripped
11 | (45/45) Accurately ripped
12 | (45/45) Accurately ripped
[AccurateRip ID: 0016d11b-00d65362-950b860c] found.
Track [ CRC | V2 ] Status
01 [009a6778|4c54868a] (26+37/65) Accurately ripped
02 [d1c17f1f|896aa470] (26+37/66) Accurately ripped
03 [7f901a5e|674cc91d] (26+37/66) Accurately ripped
04 [3727c62d|e61bb200] (26+37/65) Accurately ripped
05 [df152dab|a653a494] (26+37/66) Accurately ripped
06 [7f30cfe2|f9b711f9] (26+37/65) Accurately ripped
07 [da808690|15fd2b7c] (26+37/65) Accurately ripped
08 [98751562|2f2bde63] (26+36/65) Accurately ripped
09 [c35d401e|4e2ce29c] (26+36/65) Accurately ripped
10 [1eea5d52|9c664831] (26+36/65) Accurately ripped
11 [ab88f3ca|942539b6] (26+37/66) Accurately ripped
12 [17deea91|b3a611b7] (26+37/65) Accurately ripped
Offsetted by -900:
01 [63b5eb24] (02/65) Accurately ripped
02 [668972d0] (03/66) Accurately ripped
03 [5cd0ac78] (03/66) Accurately ripped
04 [e290be3a] (02/65) Accurately ripped
05 [f46dfd23] (03/66) Accurately ripped
06 [0ece0d86] (02/65) Accurately ripped
07 [cfe937d2] (02/65) Accurately ripped
08 [f2845257] (03/65) Accurately ripped
09 [885e965f] (03/65) Accurately ripped
10 [1b1a7ec3] (03/65) Accurately ripped
11 [5bff85ad] (03/66) Accurately ripped
12 [452d8435] (02/65) Accurately ripped

Track Peak [ CRC32 ] [W/O NULL] [ LOG ]
– 100,0 [23F629C5] [05BDF1FB] CRC32
01 100,0 [D7193672] [CEF42D08]
02 100,0 [5A996D5A] [956BBD58]
03 100,0 [ACF253A3] [4F9CA390]
04 100,0 [22DEB503] [BD568B4A]
05 100,0 [E57C05B9] [3891CA5B]
06 100,0 [9F4DE041] [E812865C]
07 100,0 [CBEAC148] [BC810C65]
08 100,0 [A46F59E9] [B669CF64]
09 100,0 [EC349FB5] [0735CF73]
10 100,0 [F1C361DE] [4364B4F6]
11 100,0 [4B73EF01] [836F3CAD]
12 100,0 [7E091FA6] [EFA13AD5]

Sam Brown - Box (1997)


All thanks go to the original ripper(s) …

>>> Sam Brown in my Blog <<<

DOWNLOAD: