Tags
Language
Tags

Santana - Love Songs (1995)

Posted By: popsakov
Santana - Love Songs (1995)

Santana - Love Songs (1995)
EAC Rip | FLAC (Img) + Cue + Log ~ 465 Mb | MP3 CBR320 ~ 184 Mb
Full Scans ~ 115 Mb | 01:16:15 | RAR 5% Recovery
Latin Rock, Blues Rock | Columbia #480574 2

Santana Love Songs? There have been two instrumental collections already, so why not? Sony's choices are pretty solid for the most part, and it's obvious this record was created more as a vibe album than a theme one – given that "Samba Pa Ti" is an instrumental, is it really a love song? But this might have been called Music for Loving or Wit the Lights Off or something like that, because the mood is unabashedly romantic though far from syrupy or sentimental. The sheer sensuality in Santana's guitar tone and the placement of percussion in the mix offers plenty of texture for languid amorous tunes like the band's cover of "Stormy" or J.J. Cale's "The Sensitive Kind." Add to this Tom Coster's gorgeous merengue "Flor d'Luna," or Alan Pasqua and Santana's shimmering "Aqua Marine," or the Jim Capaldi/Carlos-authored track "Before We Go," and you have an unabashedly romantic, lushly ornate yet moving collection of tunes that set the stage for amour.

~ Thom Jurek, All Music

***************

Track List:

01. Samba Pa Ti [4:36]
02. Black Magic Woman [3:17]
03. Europa [5:03]
04. Give Me Love [4:25]
05. I'll Be Waiting [3:12]
06. Flor D'Luna [4:53]
07. Stormy [4:46]
08. Life Is A Lady [3:48]
09. Aqua Marine [3:57]
10. The Sensitive Kind [3:32]
11. I Love You Much Too Much [4:44]
12. One With You [5:18]
13. Daughter of The Night [4:18]
14. Written In Sand [3:45]
15. Before We Go [3:45]
16. Love Is You [3:56]
17. Gypsy Woman [4:31]
18. Full Moon [4:30]

Exact Audio Copy V1.3 from 2. September 2016

Отчёт EAC об извлечении, выполненном 5. января 2020, 10:21

Santana / Love Songs

Дисковод: Optiarc DVD RW AD-7261S Adapter: 1 ID: 0

Режим чтения : Достоверность
Использование точного потока : Да
Отключение кэша аудио : Да
Использование указателей C2 : Нет

Коррекция смещения при чтении : 48
Способность читать области Lead-in и Lead-out : Нет
Заполнение пропущенных сэмплов тишиной : Да
Удаление блоков с тишиной в начале и конце : Нет
При вычислениях CRC использовались нулевые сэмплы : Да
Интерфейс : Встроенный Win32-интерфейс для Win NT/2000

Выходной формат : Пользовательский кодировщик
Выбранный битрейт : 896 kBit/s
Качество : Высокий
Добавление ID3-тега : Да
Утилита сжатия : C:\Program Files (x86)\Exact Audio Copy\Flac\flac.exe
Дополнительные параметры : -V -8 -T "Date=%year%" -T "Genre=%genre%" %source%


TOC извлечённого CD

Трек | Старт | Длительность | Начальный сектор | Конечный сектор
––––––––––––––––––––––––––––––––––-
1 | 0:00.00 | 4:35.47 | 0 | 20671
2 | 4:35.47 | 3:16.50 | 20672 | 35421
3 | 7:52.22 | 5:03.25 | 35422 | 58171
4 | 12:55.47 | 4:25.28 | 58172 | 78074
5 | 17:21.00 | 3:12.07 | 78075 | 92481
6 | 20:33.07 | 4:53.08 | 92482 | 114464
7 | 25:26.15 | 4:46.12 | 114465 | 135926
8 | 30:12.27 | 3:48.13 | 135927 | 153039
9 | 34:00.40 | 3:56.40 | 153040 | 170779
10 | 37:57.05 | 3:31.55 | 170780 | 186659
11 | 41:28.60 | 4:44.22 | 186660 | 207981
12 | 46:13.07 | 5:17.60 | 207982 | 231816
13 | 51:30.67 | 4:18.30 | 231817 | 251196
14 | 55:49.22 | 3:44.45 | 251197 | 268041
15 | 59:33.67 | 3:44.48 | 268042 | 284889
16 | 63:18.40 | 3:56.07 | 284890 | 302596
17 | 67:14.47 | 4:30.38 | 302597 | 322884
18 | 71:45.10 | 4:30.07 | 322885 | 343141


Характеристики диапазона извлечения и сообщения об ошибках

Выбранный диапазон

Имя файла D:\FLAC\Santana - Love Songs\Santana - Love Songs.wav

Пиковый уровень 100.0 %
Скорость извлечения 4.5 X
Качество диапазона 100.0 %
CRC теста 4E552EA3
CRC копии 4E552EA3
Копирование… OK

Ошибок не произошло


AccurateRip: сводка

Трек 1 : извлечено точно (доверие 21) [B55BD169] (AR v2)
Трек 2 : извлечено точно (доверие 21) [5D7BB854] (AR v2)
Трек 3 : извлечено точно (доверие 21) [C4136110] (AR v2)
Трек 4 : извлечено точно (доверие 19) [4F660A93] (AR v2)
Трек 5 : извлечено точно (доверие 21) [2057ACD1] (AR v2)
Трек 6 : извлечено точно (доверие 21) [F3EC92B1] (AR v2)
Трек 7 : извлечено точно (доверие 20) [09B79666] (AR v2)
Трек 8 : извлечено точно (доверие 19) [4D55FE8A] (AR v2)
Трек 9 : извлечено точно (доверие 20) [16E31C81] (AR v2)
Трек 10 : извлечено точно (доверие 19) [12D6244B] (AR v2)
Трек 11 : извлечено точно (доверие 20) [F2CCDB99] (AR v2)
Трек 12 : извлечено точно (доверие 19) [E123CFF4] (AR v2)
Трек 13 : извлечено точно (доверие 20) [227BD3C6] (AR v2)
Трек 14 : извлечено точно (доверие 20) [2C52DC9F] (AR v2)
Трек 15 : извлечено точно (доверие 20) [DDA08FA2] (AR v2)
Трек 16 : извлечено точно (доверие 20) [1AEC95CC] (AR v2)
Трек 17 : извлечено точно (доверие 20) [8C21F155] (AR v2)
Трек 18 : извлечено точно (доверие 19) [910FD870] (AR v2)

Все треки извлечены точно

Конец отчёта

–– CUETools DB Plugin V2.1.6

[CTDB TOCID: 4JiTUbwiHHebdQAhU9HrkFpAglc-] found
Submit result: 4JiTUbwiHHebdQAhU9HrkFpAglc- has been confirmed
Track | CTDB Status
1 | (86/86) Accurately ripped
2 | (86/86) Accurately ripped
3 | (86/86) Accurately ripped
4 | (86/86) Accurately ripped
5 | (86/86) Accurately ripped
6 | (85/86) Accurately ripped
7 | (86/86) Accurately ripped
8 | (84/86) Accurately ripped
9 | (86/86) Accurately ripped
10 | (86/86) Accurately ripped
11 | (85/86) Accurately ripped
12 | (86/86) Accurately ripped
13 | (81/86) Accurately ripped
14 | (86/86) Accurately ripped
15 | (86/86) Accurately ripped
16 | (86/86) Accurately ripped
17 | (85/86) Accurately ripped
18 | (85/86) Accurately ripped

[CUETools log; Date: 19.06.2020 22:28:26; Version: 2.1.6]
[CTDB TOCID: 4JiTUbwiHHebdQAhU9HrkFpAglc-] found.
Track | CTDB Status
1 | (96/96) Accurately ripped
2 | (96/96) Accurately ripped
3 | (96/96) Accurately ripped
4 | (96/96) Accurately ripped
5 | (96/96) Accurately ripped
6 | (95/96) Accurately ripped
7 | (96/96) Accurately ripped
8 | (94/96) Accurately ripped
9 | (96/96) Accurately ripped
10 | (96/96) Accurately ripped
11 | (95/96) Accurately ripped
12 | (96/96) Accurately ripped
13 | (90/96) Accurately ripped
14 | (96/96) Accurately ripped
15 | (96/96) Accurately ripped
16 | (96/96) Accurately ripped
17 | (95/96) Accurately ripped
18 | (95/96) Accurately ripped
[AccurateRip ID: 0031b787-0296bdfb-fb11df12] found.
Track [ CRC | V2 ] Status
01 [d5c49c5c|b55bd169] (06+23/39) Accurately ripped
02 [8f2ca9c0|5d7bb854] (07+23/40) Accurately ripped
03 [3d8bb7a9|c4136110] (07+23/40) Accurately ripped
04 [546bd444|4f660a93] (07+21/41) Accurately ripped
05 [5ab15824|2057acd1] (07+23/40) Accurately ripped
06 [ac2f81f0|f3ec92b1] (07+23/40) Accurately ripped
07 [bf054606|09b79666] (07+22/42) Accurately ripped
08 [198c7db9|4d55fe8a] (07+21/41) Accurately ripped
09 [7fd9f091|16e31c81] (07+22/39) Accurately ripped
10 [ab899c43|12d6244b] (07+21/38) Accurately ripped
11 [a29219d1|f2ccdb99] (07+22/39) Accurately ripped
12 [c45c563a|e123cff4] (07+21/41) Accurately ripped
13 [3a87e93d|227bd3c6] (07+22/42) Accurately ripped
14 [ca3c3cb5|2c52dc9f] (07+22/42) Accurately ripped
15 [5025f463|dda08fa2] (07+22/42) Accurately ripped
16 [b2465d69|1aec95cc] (07+22/42) Accurately ripped
17 [3c1a03fe|8c21f155] (07+22/39) Accurately ripped
18 [cd9b4534|910fd870] (07+21/41) Accurately ripped
Offsetted by -1737:
01 [6928ed5a] (00/39) No match (V2 was not tested)
02 [540c8975] (00/40) No match (V2 was not tested)
03 [4c11fe0a] (00/40) No match (V2 was not tested)
04 [23457a53] (00/41) No match (V2 was not tested)
05 [1bcbeb34] (00/40) No match (V2 was not tested)
06 [78de61d8] (00/40) No match (V2 was not tested)
07 [390a1b75] (00/42) No match (V2 was not tested)
08 [6cb6861c] (00/41) No match (V2 was not tested)
09 [897fe829] (00/39) No match (V2 was not tested)
10 [aef98b9b] (00/38) No match (V2 was not tested)
11 [2460d9cf] (00/39) No match (V2 was not tested)
12 [66babad3] (00/41) No match (V2 was not tested)
13 [61bbfbc3] (00/42) No match (V2 was not tested)
14 [3857697b] (00/42) No match (V2 was not tested)
15 [ee023ac4] (00/42) No match (V2 was not tested)
16 [0bb23371] (00/42) No match (V2 was not tested)
17 [5018d55f] (00/39) No match (V2 was not tested)
18 [ac375660] (00/41) No match (V2 was not tested)
Offsetted by -1352:
01 [db22764c] (02/39) Accurately ripped
02 [6675aa68] (02/40) Accurately ripped
03 [801e61b1] (02/40) Accurately ripped
04 [049a9dbc] (02/41) Accurately ripped
05 [0a5860a4] (02/40) Accurately ripped
06 [ce3a5930] (02/40) Accurately ripped
07 [9e372a7e] (02/42) Accurately ripped
08 [5df6e5d1] (02/41) Accurately ripped
09 [d6f25551] (02/39) Accurately ripped
10 [eec3ff03] (02/38) Accurately ripped
11 [497c6bc1] (02/39) Accurately ripped
12 [2b28fa02] (02/41) Accurately ripped
13 [5c95076d] (00/42) No match (V2 was not tested)
14 [d5cdece5] (02/42) Accurately ripped
15 [47689e6b] (02/42) Accurately ripped
16 [a78dc5a9] (02/42) Accurately ripped
17 [be2e0606] (02/39) Accurately ripped
18 [79fe6c26] (00/41) No match (V2 was not tested)
Offsetted by -1154:
01 [5ee49f78] (00/39) No match (V2 was not tested)
02 [52abbb5a] (00/40) No match (V2 was not tested)
03 [bf7535db] (00/40) No match (V2 was not tested)
04 [2f58aff2] (00/41) No match (V2 was not tested)
05 [59244544] (00/40) No match (V2 was not tested)
06 [9b0a8f40] (00/40) No match (V2 was not tested)
07 [6488da74] (00/42) No match (V2 was not tested)
08 [7af36ecf] (00/41) No match (V2 was not tested)
09 [47eb5a41] (00/39) No match (V2 was not tested)
10 [00f19973] (00/38) No match (V2 was not tested)
11 [46a08aed] (00/39) No match (V2 was not tested)
12 [55aad15c] (00/41) No match (V2 was not tested)
13 [9bc2d2e9] (00/42) No match (V2 was not tested)
14 [1f7896e1] (00/42) No match (V2 was not tested)
15 [005b7295] (00/42) No match (V2 was not tested)
16 [bd31e4f9] (00/42) No match (V2 was not tested)
17 [29fe6830] (00/39) No match (V2 was not tested)
18 [8012e405] (00/41) No match (V2 was not tested)
Offsetted by -1083:
01 [3b646d96] (03/39) Accurately ripped
02 [dc62073f] (03/40) Accurately ripped
03 [15861fac] (03/40) Accurately ripped
04 [62e01391] (04/41) Accurately ripped
05 [65e1bf54] (03/40) Accurately ripped
06 [df500ca8] (03/40) Accurately ripped
07 [7a848773] (04/42) Accurately ripped
08 [390fed82] (04/41) Accurately ripped
09 [34f47c59] (03/39) Accurately ripped
10 [c43ad74b] (03/38) Accurately ripped
11 [a692580b] (03/39) Accurately ripped
12 [122989e5] (04/41) Accurately ripped
13 [49b0560f] (04/42) Accurately ripped
14 [c6d0f047] (04/42) Accurately ripped
15 [41625c66] (04/42) Accurately ripped
16 [72352681] (04/42) Accurately ripped
17 [bbf7ad01] (03/39) Accurately ripped
18 [bd259a84] (00/41) No match (V2 was not tested)

Track Peak [ CRC32 ] [W/O NULL] [ LOG ]
– 100,0 [4E552EA3] [62E47BFC] CRC32
01 96,2 [AA588D9E] [E15B1666]
02 96,3 [1578A4F8] [EA4B4A2C]
03 100,0 [1C584CAC] [FF7E2BF1]
04 94,3 [4C5EB3AA] [7AD2184B]
05 97,0 [9825FF57] [7741A161]
06 97,2 [139F7D84] [F7DB9987]
07 99,4 [19876593] [950E34BC]
08 100,0 [40BC8DB0] [7151E168]
09 100,0 [03C52176] [F94CDBE2]
10 90,8 [74514813] [5DE0A34A]
11 98,4 [AC7C674C] [A4B76E06]
12 87,7 [5F6471B2] [DD8E36D9]
13 100,0 [1A78D07E] [F9165B7C]
14 96,6 [D308A81B] [56C04B3C]
15 91,0 [3B5CF333] [E76C2D38]
16 82,6 [B88D4270] [A7DCBA2D]
17 95,2 [AC5B50F7] [88D3AC97]
18 95,1 [FD3708FF] [861DCC18]

Santana - Love Songs (1995)


All thanks go to sunlee1

>>> Santana in my Blog <<<

DOWNLOAD: