Tags
Language
Tags

Santana - Moonflower (1977) {2003, Japanese Reissue, Remastered}

Posted By: popsakov
Santana - Moonflower (1977) {2003, Japanese Reissue, Remastered}

Santana - Moonflower (1977) {2003, Japanese Reissue, Remastered}
2CD | EAC Rip | FLAC (Tracks) + Cue + m3u + Log ~ 669 Mb | MP3 CBR320 ~ 261 Mb
Full Scans | 00:40:31 + 00:55:28 | RAR 5% Recovery
Fusion, Blues Rock, Classic Rock, Latin Rock | Sony Records Int'l #MHCP 2031~2

Santana, which was renowned for its concert work dating back to Woodstock, did not release a live album in the U.S. until this one, and it's only partially live, with studio tracks added, notably a cover of the Zombies' "She's Not There" (number 27) that became Santana's first Top 40 hit in five years. The usual comings and goings in band membership had taken place since last time; the track listing was a good mixture of the old – "Black Magic Woman," "Soul Sacrifice" – and the recent, and with the added radio play of a hit single, Moonflower went Top Ten and sold a million copies, the first new Santana album to do that since 1972 and the last until Supernatural in 1999.

~ William Ruhlmann, All Music

***************

Track List CD1:

01. Dawn, Go Within [2:45]
02. Carnaval [2:18]
03. Let The Children Play [2:38]
04. Jugando [2:11]
05. I'll Be Waiting [5:18]
06. Zulu [3:22]
07. Bahia [1:38]
08. Black Magic Woman, Gypsy Queen [6:33]
09. Dance Sister Dance (Baila Mi Hermana) [7:46]
10. Europa (Earth's Cry Heaven's Smile) [6:07]

Exact Audio Copy V1.1 from 23. June 2015

EAC extraction logfile from 9. May 2022, 15:22

Santana / Moonflower (Disc 1)

Used drive : PIONEER DVD-RW DVR-219L Adapter: 1 ID: 0

Read mode : Secure
Utilize accurate stream : Yes
Defeat audio cache : Yes
Make use of C2 pointers : No

Read offset correction : 6
Overread into Lead-In and Lead-Out : No
Fill up missing offset samples with silence : Yes
Delete leading and trailing silent blocks : No
Null samples used in CRC calculations : Yes
Used interface : Native Win32 interface for Win NT & 2000
Gap handling : Appended to previous track

Used output format : User Defined Encoder
Selected bitrate : 768 kBit/s
Quality : High
Add ID3 tag : No
Command line compressor : C:\Install\Exact Audio Copy\FLAC\FLAC.EXE
Additional command line options : -6 -V -T "ARTIST=%artist%" -T "TITLE=%title%" -T "ALBUM=%albumtitle%" -T "DATE=%year%" -T "TRACKNUMBER=%tracknr%" -T "GENRE=%genre%" -T "COMMENT=%comment%" -T "BAND=%albuminterpret%" -T "ALBUMARTIST=%albuminterpret%" -T "COMPOSER=%composer%" %haslyrics%–tag-from-file=LYRICS="%lyricsfile%"%haslyrics% -T "DISCNUMBER=%cdnumber%" -T "TOTALDISCS=%totalcds%" -T "TOTALTRACKS=%numtracks%" %hascover%–picture="%coverfile%"%hascover% %source% -o %dest%


TOC of the extracted CD

Track | Start | Length | Start sector | End sector
––––––––––––––––––––––––––––-
1 | 0:00.00 | 2:44.07 | 0 | 12306
2 | 2:44.07 | 2:17.60 | 12307 | 22641
3 | 5:01.67 | 2:37.45 | 22642 | 34461
4 | 7:39.37 | 2:10.05 | 34462 | 44216
5 | 9:49.42 | 5:20.25 | 44217 | 68241
6 | 15:09.67 | 3:25.10 | 68242 | 83626
7 | 18:35.02 | 1:37.03 | 83627 | 90904
8 | 20:12.05 | 6:32.65 | 90905 | 120369
9 | 26:44.70 | 7:45.42 | 120370 | 155286
10 | 34:30.37 | 6:07.00 | 155287 | 182811


Track 1

Filename E:\Santana - Moonflower - 1977(2CD)\CD1\01. Dawn, Go Within.wav

Pre-gap length 0:00:02.00

Peak level 99.8 %
Extraction speed 1.6 X
Track quality 100.0 %
Test CRC 412A51C1
Copy CRC 412A51C1
Accurately ripped (confidence 3) [5FB1B54C] (AR v2)
Copy OK

Track 2

Filename E:\Santana - Moonflower - 1977(2CD)\CD1\02. Carnaval.wav

Peak level 99.8 %
Extraction speed 1.3 X
Track quality 99.9 %
Test CRC 373F2589
Copy CRC 373F2589
Accurately ripped (confidence 3) [83FEE68C] (AR v2)
Copy OK

Track 3

Filename E:\Santana - Moonflower - 1977(2CD)\CD1\03. Let The Children Play.wav

Peak level 99.8 %
Extraction speed 1.7 X
Track quality 100.0 %
Test CRC C123CB52
Copy CRC C123CB52
Accurately ripped (confidence 3) [DA131500] (AR v2)
Copy OK

Track 4

Filename E:\Santana - Moonflower - 1977(2CD)\CD1\04. Jugando.wav

Peak level 99.8 %
Extraction speed 1.7 X
Track quality 100.0 %
Test CRC EBDDD4BB
Copy CRC EBDDD4BB
Accurately ripped (confidence 3) [064D80E2] (AR v2)
Copy OK

Track 5

Filename E:\Santana - Moonflower - 1977(2CD)\CD1\05. I'll Be Waiting.wav

Peak level 99.8 %
Extraction speed 2.0 X
Track quality 99.9 %
Test CRC A563ADB2
Copy CRC A563ADB2
Accurately ripped (confidence 3) [94E405F0] (AR v2)
Copy OK

Track 6

Filename E:\Santana - Moonflower - 1977(2CD)\CD1\06. Zulu.wav

Pre-gap length 0:00:03.26

Peak level 99.8 %
Extraction speed 2.3 X
Track quality 100.0 %
Test CRC 23A73C69
Copy CRC 23A73C69
Accurately ripped (confidence 3) [B45F7511] (AR v2)
Copy OK

Track 7

Filename E:\Santana - Moonflower - 1977(2CD)\CD1\07. Bahia.wav

Pre-gap length 0:00:03.86

Peak level 93.1 %
Extraction speed 2.0 X
Track quality 100.0 %
Test CRC E3A31AEE
Copy CRC E3A31AEE
Accurately ripped (confidence 3) [241DDCDE] (AR v2)
Copy OK

Track 8

Filename E:\Santana - Moonflower - 1977(2CD)\CD1\08. Black Magic Woman, Gypsy Queen.wav

Peak level 99.8 %
Extraction speed 2.7 X
Track quality 100.0 %
Test CRC 729CBA6B
Copy CRC 729CBA6B
Accurately ripped (confidence 3) [D4AC2435] (AR v2)
Copy OK

Track 9

Filename E:\Santana - Moonflower - 1977(2CD)\CD1\09. Dance Sister Dance (Baila Mi Hermana).wav

Peak level 99.8 %
Extraction speed 2.9 X
Track quality 100.0 %
Test CRC 6834F85B
Copy CRC 6834F85B
Accurately ripped (confidence 3) [8104DEB7] (AR v2)
Copy OK

Track 10

Filename E:\Santana - Moonflower - 1977(2CD)\CD1\10. Europa (Earth's Cry Heaven's Smile).wav

Peak level 99.8 %
Extraction speed 3.1 X
Track quality 100.0 %
Test CRC 8394F16F
Copy CRC 8394F16F
Accurately ripped (confidence 3) [AF8E10A7] (AR v2)
Copy OK


All tracks accurately ripped

No errors occurred

End of status report

–– CUETools DB Plugin V2.1.6

[CTDB TOCID: CpqIN8OjadSvx0ikakZ0V2fwfRM-] found
Submit result: CpqIN8OjadSvx0ikakZ0V2fwfRM- has been confirmed
Track | CTDB Status
1 | (17/28) Accurately ripped
2 | (17/28) Accurately ripped
3 | (17/28) Accurately ripped
4 | (17/28) Accurately ripped
5 | (17/28) Accurately ripped
6 | (16/28) Accurately ripped
7 | (17/28) Accurately ripped
8 | (17/28) Accurately ripped
9 | (17/28) Accurately ripped
10 | (16/28) Accurately ripped


==== Log checksum F64065E624CCB33A9E997C5358AFF1CCD2B9B5B36E1FB442E6D589891904FD92 ====

Track List CD2:

01. She's Not There [4:09]
02. Flor D'Luna (Moonflower) [4:57]
03. Soul Sacrifice / Head,Hands&Feet (Drum Solo) [14:00]
04. El Morocco [5:02]
05. Transcendance [5:14]
06. Savor / Toussaint L'Overture [12:57]
07. Black Magic Woman (Single Version) [2:38]
08. I'll Be Waiting (Single Version) [3:13]
09. She's Not There (Single Version) [3:20]

Exact Audio Copy V1.1 from 23. June 2015

EAC extraction logfile from 9. May 2022, 12:02

Santana / Moonflower (Disc 2)

Used drive : PIONEER DVD-RW DVR-219L Adapter: 1 ID: 0

Read mode : Secure
Utilize accurate stream : Yes
Defeat audio cache : Yes
Make use of C2 pointers : No

Read offset correction : 6
Overread into Lead-In and Lead-Out : No
Fill up missing offset samples with silence : Yes
Delete leading and trailing silent blocks : No
Null samples used in CRC calculations : Yes
Used interface : Native Win32 interface for Win NT & 2000
Gap handling : Appended to previous track

Used output format : User Defined Encoder
Selected bitrate : 768 kBit/s
Quality : High
Add ID3 tag : No
Command line compressor : C:\Install\Exact Audio Copy\FLAC\FLAC.EXE
Additional command line options : -6 -V -T "ARTIST=%artist%" -T "TITLE=%title%" -T "ALBUM=%albumtitle%" -T "DATE=%year%" -T "TRACKNUMBER=%tracknr%" -T "GENRE=%genre%" -T "COMMENT=%comment%" -T "BAND=%albuminterpret%" -T "ALBUMARTIST=%albuminterpret%" -T "COMPOSER=%composer%" %haslyrics%–tag-from-file=LYRICS="%lyricsfile%"%haslyrics% -T "DISCNUMBER=%cdnumber%" -T "TOTALDISCS=%totalcds%" -T "TOTALTRACKS=%numtracks%" %hascover%–picture="%coverfile%"%hascover% %source% -o %dest%


TOC of the extracted CD

Track | Start | Length | Start sector | End sector
––––––––––––––––––––––––––––-
1 | 0:00.00 | 4:08.62 | 0 | 18661
2 | 4:08.62 | 5:01.60 | 18662 | 41296
3 | 9:10.47 | 14:01.30 | 41297 | 104401
4 | 23:12.02 | 5:05.23 | 104402 | 127299
5 | 28:17.25 | 5:13.47 | 127300 | 150821
6 | 33:30.72 | 12:58.37 | 150822 | 209208
7 | 46:29.34 | 2:37.43 | 209209 | 221026
8 | 49:07.02 | 3:12.23 | 221027 | 235449
9 | 52:19.25 | 3:19.45 | 235450 | 250419


Track 1

Filename E:\Santana - Moonflower - 1977(2CD)\CD2\01. She's Not There.wav

Pre-gap length 0:00:02.00

Peak level 99.8 %
Extraction speed 1.7 X
Track quality 100.0 %
Test CRC 1F99B7BB
Copy CRC 1F99B7BB
Accurately ripped (confidence 3) [0AD0C4A1] (AR v2)
Copy OK

Track 2

Filename E:\Santana - Moonflower - 1977(2CD)\CD2\02. Flor D'Luna (Moonflower).wav

Peak level 99.8 %
Extraction speed 1.8 X
Track quality 99.9 %
Test CRC 7678593D
Copy CRC 7678593D
Accurately ripped (confidence 3) [7CBB3AA7] (AR v2)
Copy OK

Track 3

Filename E:\Santana - Moonflower - 1977(2CD)\CD2\03. Soul Sacrifice , Head,Hands&Feet (Drum Solo).wav

Pre-gap length 0:00:05.06

Peak level 99.8 %
Extraction speed 2.5 X
Track quality 100.0 %
Test CRC F4E57991
Copy CRC F4E57991
Accurately ripped (confidence 3) [296BA14A] (AR v2)
Copy OK

Track 4

Filename E:\Santana - Moonflower - 1977(2CD)\CD2\04. El Morocco.wav

Pre-gap length 0:00:01.86

Peak level 99.8 %
Extraction speed 2.7 X
Track quality 100.0 %
Test CRC 47FEC57C
Copy CRC 47FEC57C
Accurately ripped (confidence 3) [72C76D25] (AR v2)
Copy OK

Track 5

Filename E:\Santana - Moonflower - 1977(2CD)\CD2\05. Transcendance.wav

Pre-gap length 0:00:03.33

Peak level 99.8 %
Extraction speed 2.8 X
Track quality 100.0 %
Test CRC 46AE02A5
Copy CRC 46AE02A5
Accurately ripped (confidence 3) [527503AE] (AR v2)
Copy OK

Track 6

Filename E:\Santana - Moonflower - 1977(2CD)\CD2\06. Savor , Toussaint L'Overture.wav

Peak level 99.8 %
Extraction speed 3.2 X
Track quality 99.9 %
Test CRC 33316AD1
Copy CRC 33316AD1
Accurately ripped (confidence 3) [58CEECB9] (AR v2)
Copy OK

Track 7

Filename E:\Santana - Moonflower - 1977(2CD)\CD2\07. Black Magic Woman (Single Version).wav

Pre-gap length 0:00:01.58

Peak level 99.8 %
Extraction speed 3.0 X
Track quality 100.0 %
Test CRC 9FF9D824
Copy CRC 9FF9D824
Accurately ripped (confidence 3) [B9D90334] (AR v2)
Copy OK

Track 8

Filename E:\Santana - Moonflower - 1977(2CD)\CD2\08. I'll Be Waiting (Single Version).wav

Peak level 99.5 %
Extraction speed 3.2 X
Track quality 100.0 %
Test CRC 609EABB7
Copy CRC 609EABB7
Accurately ripped (confidence 3) [85550D23] (AR v2)
Copy OK

Track 9

Filename E:\Santana - Moonflower - 1977(2CD)\CD2\09. She's Not There (Single Version).wav

Peak level 94.3 %
Extraction speed 3.2 X
Track quality 100.0 %
Test CRC 205C7234
Copy CRC 205C7234
Accurately ripped (confidence 3) [C230039E] (AR v2)
Copy OK


All tracks accurately ripped

No errors occurred

End of status report

–– CUETools DB Plugin V2.1.6

[CTDB TOCID: hcQCgNjWJdA07bGOkztkGfmYbbs-] found
Submit result: hcQCgNjWJdA07bGOkztkGfmYbbs- has been confirmed
Track | CTDB Status
1 | (17/27) Accurately ripped
2 | (17/27) Accurately ripped
3 | (16/27) Accurately ripped
4 | (17/27) Accurately ripped
5 | (17/27) Accurately ripped
6 | (18/27) Accurately ripped
7 | (18/27) Accurately ripped
8 | (18/27) Accurately ripped
9 | (18/27) Accurately ripped


==== Log checksum B0BD87579C99D30BD4374E096FC1C05351FDDF0C21BB0812415171F9772A7307 ====

Santana - Moonflower (1977) {2003, Japanese Reissue, Remastered}


All thanks go to pazanenok

>>> My Blog <<<

DOWNLOAD: