Tags
Language
Tags

Santana - The Hits Of Santana (1990)

Posted By: popsakov
Santana - The Hits Of Santana (1990)

Santana - The Hits Of Santana (1990)
EAC Rip | FLAC (Img) + Cue + Log ~ 427 Mb | MP3 CBR320 ~ 169 Mb
Full Scans | 01:07:43 | RAR 5% Recovery
Blues Rock, Latin Rock | CBS Records #466275 2

Santana is the primary exponent of Latin-tinged rock, particularly due to its combination of Latin percussion with bandleader Carlos Santana's distinctive, high-pitched lead guitar playing. The group was the last major act to emerge from the psychedelic San Francisco music scene of the 1960s and it enjoyed massive success at the end of the decade and into the early '70s. In 1998, Santana was inducted into the Rock and Roll Hall of Fame. The band has earned nine Grammy Awards and three Latin Grammy Awards, the latter all in 2000. Carlos also won a Grammy Award as a solo artist in 1988. Santana has sold more than 90 million records worldwide, making them one of the world's best-selling groups of all time.

***************

Santana - The Hits Of Santana (1990)

Santana - The Hits Of Santana (1990)

Track List:

01. No One To Depend On [5:26]
02. Samba Pa Ti [4:41]
03. Stormy [4:42]
04. Aqua Marine [5:26]
05. Europa (Earth's Cry Heaven's Smile) [4:59]
06. Evil Ways [3:54]
07. American Gypsy [3:41]
08. Shango [1:41]
09. Well All Right [4:10]
10. Black Magic Woman - Gypsy Queen [5:16]
11. Oye Como Va [4:17]
12. I Love You Much Too Much [4:18]
13. Jingo [4:09]
14. Samba De Sausalito [3:09]
15. Hold On [4:26]
16. Winning [3:29]

Exact Audio Copy V1.0 beta 3 from 29. August 2011

EAC extraction logfile from 8. April 2017, 6:40

Santana / Hits Of Santana

Used drive : TSSTcorpCDDVDW SH-216DB Adapter: 0 ID: 0

Read mode : Secure
Utilize accurate stream : Yes
Defeat audio cache : Yes
Make use of C2 pointers : No

Read offset correction : 6
Overread into Lead-In and Lead-Out : No
Fill up missing offset samples with silence : Yes
Delete leading and trailing silent blocks : No
Null samples used in CRC calculations : Yes
Used interface : Native Win32 interface for Win NT & 2000

Used output format : User Defined Encoder
Selected bitrate : 1024 kBit/s
Quality : High
Add ID3 tag : No
Command line compressor : C:\Program Files (x86)\Exact Audio Copy\Flac\flac.exe
Additional command line options : -V -8 -T "Date=%year%" -T "Genre=%genre%" %source%


TOC of the extracted CD

Track | Start | Length | Start sector | End sector
––––––––––––––––––––––––––––-
1 | 0:00.00 | 5:25.72 | 0 | 24446
2 | 5:25.72 | 4:40.40 | 24447 | 45486
3 | 10:06.37 | 4:41.38 | 45487 | 66599
4 | 14:48.00 | 5:26.10 | 66600 | 91059
5 | 20:14.10 | 4:59.02 | 91060 | 113486
6 | 25:13.12 | 3:53.48 | 113487 | 131009
7 | 29:06.60 | 3:41.37 | 131010 | 147621
8 | 32:48.22 | 1:40.68 | 147622 | 155189
9 | 34:29.15 | 4:09.50 | 155190 | 173914
10 | 38:38.65 | 5:16.25 | 173915 | 197639
11 | 43:55.15 | 4:16.62 | 197640 | 216901
12 | 48:12.02 | 4:18.25 | 216902 | 236276
13 | 52:30.27 | 4:09.13 | 236277 | 254964
14 | 56:39.40 | 3:08.50 | 254965 | 269114
15 | 59:48.15 | 4:26.25 | 269115 | 289089
16 | 64:14.40 | 3:28.62 | 289090 | 304751


Range status and errors

Selected range

Filename L:\Private\My Audio Ripps\ CD - RIPS\Santana - The Hits Of\Santana - Hits Of Santana.wav

Peak level 99.6 %
Extraction speed 7.9 X
Range quality 99.9 %
Test CRC 9C48EF70
Copy CRC 9C48EF70
Copy OK

No errors occurred


AccurateRip summary

Track 1 accurately ripped (confidence 49) [147893E8] (AR v2)
Track 2 accurately ripped (confidence 47) [D3FCB542] (AR v2)
Track 3 accurately ripped (confidence 48) [7B09FB9F] (AR v2)
Track 4 accurately ripped (confidence 49) [3B125B9E] (AR v2)
Track 5 accurately ripped (confidence 47) [E7F532A2] (AR v2)
Track 6 accurately ripped (confidence 48) [831A7228] (AR v2)
Track 7 accurately ripped (confidence 49) [A655974F] (AR v2)
Track 8 accurately ripped (confidence 49) [F01DD512] (AR v2)
Track 9 accurately ripped (confidence 48) [1E1BC5EE] (AR v2)
Track 10 accurately ripped (confidence 47) [D8FE539A] (AR v2)
Track 11 accurately ripped (confidence 48) [EFD716B1] (AR v2)
Track 12 accurately ripped (confidence 49) [87330AB5] (AR v2)
Track 13 accurately ripped (confidence 48) [21B43B93] (AR v2)
Track 14 accurately ripped (confidence 48) [CE03F4BA] (AR v2)
Track 15 accurately ripped (confidence 48) [2034FBEF] (AR v2)
Track 16 accurately ripped (confidence 49) [BAA6C723] (AR v2)

All tracks accurately ripped

End of status report

==== Log checksum EBDD215537E5E12DCA7B0F99E65D491375CF3B78809677DFC90AF9269889EA3C ====

[CUETools log; Date: 14.04.2017 12:56:25; Version: 2.1.5]
[CTDB TOCID: sZtWs6Pe7oAcLj8q1nel9Y7l0uw-] found.
Track | CTDB Status
1 | (233/237) Accurately ripped
2 | (235/237) Accurately ripped
3 | (235/237) Accurately ripped
4 | (234/237) Accurately ripped
5 | (235/237) Accurately ripped
6 | (236/237) Accurately ripped
7 | (236/237) Accurately ripped
8 | (236/237) Accurately ripped
9 | (235/237) Accurately ripped
10 | (233/237) Accurately ripped
11 | (231/237) Accurately ripped
12 | (236/237) Accurately ripped
13 | (236/237) Accurately ripped
14 | (233/237) Accurately ripped
15 | (234/237) Accurately ripped
16 | (234/237) Accurately ripped
[AccurateRip ID: 00297777-01e98b78-dc0fdf10] found.
Track [ CRC | V2 ] Status
01 [7f9fa82a|147893e8] (041+049/171) Accurately ripped
02 [cc334118|d3fcb542] (040+047/173) Accurately ripped
03 [b1708377|7b09fb9f] (042+048/173) Accurately ripped
04 [7116bf50|3b125b9e] (040+049/173) Accurately ripped
05 [b849fadc|e7f532a2] (041+047/171) Accurately ripped
06 [d2e55bb2|831a7228] (042+048/175) Accurately ripped
07 [e3743f42|a655974f] (042+049/173) Accurately ripped
08 [0d1f07bd|f01dd512] (041+049/171) Accurately ripped
09 [d033d500|1e1bc5ee] (042+048/171) Accurately ripped
10 [c8d8316b|d8fe539a] (042+047/175) Accurately ripped
11 [e79ddadc|efd716b1] (042+048/173) Accurately ripped
12 [a65bc085|87330ab5] (041+049/172) Accurately ripped
13 [c1885ece|21b43b93] (042+048/173) Accurately ripped
14 [71a23ff5|ce03f4ba] (042+048/170) Accurately ripped
15 [08a30484|2034fbef] (040+048/169) Accurately ripped
16 [6d4329ff|baa6c723] (037+049/167) Accurately ripped
Offsetted by -628:
01 [98aad076] (009/171) Accurately ripped
02 [a9741eb0] (009/173) Accurately ripped
03 [2e559fc7] (009/173) Accurately ripped
04 [76e4e390] (009/173) Accurately ripped
05 [29bf25b8] (009/171) Accurately ripped
06 [6733b6d6] (009/175) Accurately ripped
07 [fdc95516] (009/173) Accurately ripped
08 [31af8ac9] (009/171) Accurately ripped
09 [ad1615ac] (009/171) Accurately ripped
10 [72a17c37] (009/175) Accurately ripped
11 [85a3085c] (008/173) Accurately ripped
12 [810f537d] (009/172) Accurately ripped
13 [4c01fe52] (009/173) Accurately ripped
14 [30ac4029] (009/170) Accurately ripped
15 [209e6d54] (009/169) Accurately ripped
16 [f97514cf] (009/167) Accurately ripped
Offsetted by -270:
01 [ef7c813c] (018/171) Accurately ripped
02 [c3c89ebc] (018/173) Accurately ripped
03 [3496af6f] (019/173) Accurately ripped
04 [641823b0] (019/173) Accurately ripped
05 [761cf746] (018/171) Accurately ripped
06 [d582f848] (018/175) Accurately ripped
07 [f47b7a60] (018/173) Accurately ripped
08 [697a82ef] (018/171) Accurately ripped
09 [ff1107a2] (019/171) Accurately ripped
10 [ce2c4a3d] (018/175) Accurately ripped
11 [ea55131c] (018/173) Accurately ripped
12 [28423b39] (018/172) Accurately ripped
13 [d03a36f4] (018/173) Accurately ripped
14 [85ce7fa3] (018/170) Accurately ripped
15 [06b7df3c] (018/169) Accurately ripped
16 [841b6006] (018/167) Accurately ripped
Offsetted by -29:
01 [32833abd] (009/171) Accurately ripped
02 [51eee97e] (010/173) Accurately ripped
03 [9e57388b] (010/173) Accurately ripped
04 [0fee2060] (011/173) Accurately ripped
05 [8c341413] (010/171) Accurately ripped
06 [44f463fb] (011/175) Accurately ripped
07 [7b172837] (010/173) Accurately ripped
08 [0506b900] (010/171) Accurately ripped
09 [5449b1ab] (010/171) Accurately ripped
10 [b48ebc9e] (011/175) Accurately ripped
11 [a589b63c] (011/173) Accurately ripped
12 [98d07a43] (010/172) Accurately ripped
13 [057b3c2f] (010/173) Accurately ripped
14 [74bfa782] (010/170) Accurately ripped
15 [6bfc7cb8] (010/169) Accurately ripped
16 [81e03ee7] (010/167) Accurately ripped
Offsetted by -664:
01 [301d9812] (000/171) No match (V2 was not tested)
02 [b965e6e8] (000/173) No match (V2 was not tested)
03 [ea7cd8d7] (000/173) No match (V2 was not tested)
04 [eca0ced0] (000/173) No match (V2 was not tested)
05 [541f8ba4] (000/171) No match (V2 was not tested)
06 [678cfeea] (000/175) No match (V2 was not tested)
07 [eefd7f1a] (000/173) No match (V2 was not tested)
08 [c6888a25] (000/171) No match (V2 was not tested)
09 [d577d828] (000/171) No match (V2 was not tested)
10 [62464c53] (000/175) No match (V2 was not tested)
11 [db550fdc] (000/173) No match (V2 was not tested)
12 [703f1f95] (000/172) No match (V2 was not tested)
13 [f8a23d46] (000/173) No match (V2 was not tested)
14 [113aaf0d] (000/170) No match (V2 was not tested)
15 [205cf0e4] (000/169) No match (V2 was not tested)
16 [2b95c983] (000/167) No match (V2 was not tested)

Track Peak [ CRC32 ] [W/O NULL] [ LOG ]
– 99,6 [9C48EF70] [8A1F1964] CRC32
01 99,6 [27F56E00] [834F248B]
02 97,7 [E1A4E9FE] [189BC25D]
03 96,2 [3A995CB9] [2CE53E3C]
04 95,6 [CCED3816] [6CD39674]
05 97,5 [FF2AA82B] [1A7DF4EE]
06 97,7 [38D1D795] [D79666C2]
07 97,6 [5CA5FE66] [8229C205]
08 96,4 [5AA91AE3] [8CC0E84C]
09 97,3 [895AC040] [066166C6]
10 96,3 [2D6EB825] [E9F0A144]
11 97,7 [7A0C35B7] [233CAACC]
12 93,8 [C9A3E5A1] [7FA458F8]
13 95,8 [FDA1D3AD] [E15CECC9]
14 97,5 [4436FF49] [E9AC9DAC]
15 97,7 [EF773D3A] [CA293083]
16 97,2 [CBB406E9] [577F93C3]

Santana - The Hits Of Santana (1990)


All thanks go to alexpika

>>> Santana in my Blog <<<

DOWNLOAD: