Tags
Language
Tags

Santana - The Very Best Of Santana (2011)

Posted By: popsakov
Santana - The Very Best Of Santana (2011)

Santana - The Very Best Of Santana (2011)
EAC Rip | FLAC (Tracks) + Cue + m3u + Log ~ 519 Mb | MP3 CBR320 ~ 189 Mb
Full Scans ~ 60 Mb | 01:18:00 | RAR 5% Recovery
Blues Rock / Pop Rock / Psychedelic Rock / Classic Rock / Latin Rock
Camden / Sony Music #88697906572

Arriving at the twilight of the 1960s, Santana were psychedelic pioneers who ushered Latin rock into the mainstream with their first three albums: Santana, Abraxas, and Santana III. Thanks to their appearance at Woodstock, their eponymous album was a smash hit right out of the gate, with its single "Evil Ways" making it into the Billboard Top Ten in 1969. They remained at the top of the charts until 1973, when leader and namesake guitarist Carlos Santana began exploring esoteric, spiritual jazz fusion on his own. Carlos may have wandered away from the band who shared his name, but he always returned to the group, sustaining them through years both productive and fallow. Through it all, Santana maintained a loyal classic rock following, but their popularity exploded in 1999 thanks to Supernatural, a splashy comeback masterminded by Clive Davis and featuring the Rob Thomas duet "Smooth." Like "Black Magic Woman," "Evil Ways," and "Oye Como Va" before it, "Smooth" became a pop hit – it reached number one, their first ever – and became an enduring classic, allowing Santana to flourish into the 21st century.

***************

Track List:

01. Europa (Earth's Cry Heaven's Smile) [5:07]
02. Black Magic Woman-Gypsy Queen [3:14]
03. Oye Como Va [4:16]
04. Samba Pa Ti [4:45]
05. Carnaval [2:19]
06. She's Not There [4:02]
07. Soul Sacrifice [6:37]
08. Let The Children Play [2:38]
09. Jugando [2:10]
10. No One To Depend On [5:31]
11. Evil Ways [3:00]
12. Dance Sister Dance (Baila Mi Hermana) [3:11]
13. Jingo [2:46]
14. Everything's Coming Our Way [3:16]
15. Hold On [3:52]
16. One Chain (Don't Make No Prison) [7:13]
17. Lightning In The Sky [3:49]
18. Aqua Marine [5:30]
19. Travellin' Blues [4:53]

Exact Audio Copy V1.3 from 2. September 2016

Отчёт EAC об извлечении, выполненном 24. сентября 2021, 16:16

Santana / The Very Best Of

Дисковод: ASUS DRW-24D5MT Adapter: 1 ID: 1

Режим чтения : Достоверность
Использование точного потока : Да
Отключение кэша аудио : Да
Использование указателей C2 : Нет

Коррекция смещения при чтении : 6
Способность читать области Lead-in и Lead-out : Нет
Заполнение пропущенных сэмплов тишиной : Да
Удаление блоков с тишиной в начале и конце : Нет
При вычислениях CRC использовались нулевые сэмплы : Да
Интерфейс : Встроенный Win32-интерфейс для Win NT/2000
Обработка зазоров : Добавлено к предыдущему треку

Выходной формат : Пользовательский кодировщик
Выбранный битрейт : 896 kBit/s
Качество : Высокий
Добавление ID3-тега : Нет
Утилита сжатия : C:\Program Files (x86)\Exact Audio Copy\flac-1.3.1-win\win64\flac.exe
Дополнительные параметры : -8 -V -T "ARTIST=%artist%" -T "TITLE=%title%" -T "ALBUM=%albumtitle%" -T "DATE=%year%" -T "TRACKNUMBER=%tracknr%/%numtracks%" -T "GENRE=%genre%" -T "COMMENT=%comment%" %source% -o %dest%


TOC извлечённого CD

Трек | Старт | Длительность | Начальный сектор | Конечный сектор
––––––––––––––––––––––––––––––––––-
1 | 0:00.00 | 5:07.69 | 0 | 23093
2 | 5:07.69 | 3:15.47 | 23094 | 37765
3 | 8:23.41 | 4:17.48 | 37766 | 57088
4 | 12:41.14 | 4:46.39 | 57089 | 78577
5 | 17:27.53 | 2:20.19 | 78578 | 89096
6 | 19:47.72 | 4:03.28 | 89097 | 107349
7 | 23:51.25 | 6:38.07 | 107350 | 137206
8 | 30:29.32 | 2:37.34 | 137207 | 149015
9 | 33:06.66 | 2:11.22 | 149016 | 158862
10 | 35:18.13 | 5:32.43 | 158863 | 183805
11 | 40:50.56 | 3:01.23 | 183806 | 197403
12 | 43:52.04 | 3:12.33 | 197404 | 211836
13 | 47:04.37 | 2:46.71 | 211837 | 224357
14 | 49:51.33 | 3:17.11 | 224358 | 239143
15 | 53:08.44 | 3:53.48 | 239144 | 256666
16 | 57:02.17 | 7:14.10 | 256667 | 289226
17 | 64:16.27 | 3:50.10 | 289227 | 306486
18 | 68:06.37 | 5:31.10 | 306487 | 331321
19 | 73:37.47 | 4:52.23 | 331322 | 353244


Трек 1

Имя файла F:\Lossless\_DJ Stakan\Santana\2011 - The Very Best Of\01 - Europa (Earth's Cry Heaven's Smile).wav

Длина предзазора 0:00:02.00

Пиковый уровень 86.7 %
Скорость извлечения 4.9 X
Качество трека 100.0 %
CRC теста 6DCD0F73
CRC копии 6DCD0F73
Точное извлечение (достоверность 65) [AB649DB7] (AR v2)
Копирование… OK

Трек 2

Имя файла F:\Lossless\_DJ Stakan\Santana\2011 - The Very Best Of\02 - Black Magic Woman-Gypsy Queen.wav

Длина предзазора 0:00:01.58

Пиковый уровень 100.0 %
Скорость извлечения 5.0 X
Качество трека 100.0 %
CRC теста 1578192D
CRC копии 1578192D
Точное извлечение (достоверность 66) [B852AF13] (AR v2)
Копирование… OK

Трек 3

Имя файла F:\Lossless\_DJ Stakan\Santana\2011 - The Very Best Of\03 - Oye Como Va.wav

Длина предзазора 0:00:01.58

Пиковый уровень 87.0 %
Скорость извлечения 4.8 X
Качество трека 99.9 %
CRC теста 34A29446
CRC копии 34A29446
Точное извлечение (достоверность 67) [1276505B] (AR v2)
Копирование… OK

Трек 4

Имя файла F:\Lossless\_DJ Stakan\Santana\2011 - The Very Best Of\04 - Samba Pa Ti.wav

Длина предзазора 0:00:01.58

Пиковый уровень 78.2 %
Скорость извлечения 5.3 X
Качество трека 99.9 %
CRC теста AD62D60E
CRC копии AD62D60E
Точное извлечение (достоверность 66) [AE657D8D] (AR v2)
Копирование… OK

Трек 5

Имя файла F:\Lossless\_DJ Stakan\Santana\2011 - The Very Best Of\05 - Carnaval.wav

Длина предзазора 0:00:01.58

Пиковый уровень 100.0 %
Скорость извлечения 5.7 X
Качество трека 100.0 %
CRC теста E02C2EDB
CRC копии E02C2EDB
Точное извлечение (достоверность 67) [D13AE0BA] (AR v2)
Копирование… OK

Трек 6

Имя файла F:\Lossless\_DJ Stakan\Santana\2011 - The Very Best Of\06 - She's Not There.wav

Длина предзазора 0:00:01.58

Пиковый уровень 100.0 %
Скорость извлечения 5.5 X
Качество трека 99.9 %
CRC теста BCBB865B
CRC копии BCBB865B
Точное извлечение (достоверность 67) [D939E991] (AR v2)
Копирование… OK

Трек 7

Имя файла F:\Lossless\_DJ Stakan\Santana\2011 - The Very Best Of\07 - Soul Sacrifice.wav

Длина предзазора 0:00:01.58

Пиковый уровень 100.0 %
Скорость извлечения 6.5 X
Качество трека 99.9 %
CRC теста A5F6D1B4
CRC копии A5F6D1B4
Точное извлечение (достоверность 66) [D210A8B3] (AR v2)
Копирование… OK

Трек 8

Имя файла F:\Lossless\_DJ Stakan\Santana\2011 - The Very Best Of\08 - Let The Children Play.wav

Длина предзазора 0:00:01.58

Пиковый уровень 100.0 %
Скорость извлечения 6.8 X
Качество трека 100.0 %
CRC теста CF038F54
CRC копии CF038F54
Точное извлечение (достоверность 66) [5A272D68] (AR v2)
Копирование… OK

Трек 9

Имя файла F:\Lossless\_DJ Stakan\Santana\2011 - The Very Best Of\09 - Jugando.wav

Пиковый уровень 100.0 %
Скорость извлечения 6.7 X
Качество трека 100.0 %
CRC теста 8571FA52
CRC копии 8571FA52
Точное извлечение (достоверность 66) [40F37C57] (AR v2)
Копирование… OK

Трек 10

Имя файла F:\Lossless\_DJ Stakan\Santana\2011 - The Very Best Of\10 - No One To Depend On.wav

Длина предзазора 0:00:01.58

Пиковый уровень 100.0 %
Скорость извлечения 7.6 X
Качество трека 100.0 %
CRC теста C0A98A6E
CRC копии C0A98A6E
Точное извлечение (достоверность 67) [63A7A0FE] (AR v2)
Копирование… OK

Трек 11

Имя файла F:\Lossless\_DJ Stakan\Santana\2011 - The Very Best Of\11 - Evil Ways.wav

Длина предзазора 0:00:01.58

Пиковый уровень 100.0 %
Скорость извлечения 7.6 X
Качество трека 100.0 %
CRC теста 28081EDA
CRC копии 28081EDA
Точное извлечение (достоверность 67) [03D3ADEE] (AR v2)
Копирование… OK

Трек 12

Имя файла F:\Lossless\_DJ Stakan\Santana\2011 - The Very Best Of\12 - Dance Sister Dance (Baila Mi Hermana).wav

Длина предзазора 0:00:01.58

Пиковый уровень 100.0 %
Скорость извлечения 7.9 X
Качество трека 100.0 %
CRC теста 08724749
CRC копии 08724749
Точное извлечение (достоверность 66) [305F9F49] (AR v2)
Копирование… OK

Трек 13

Имя файла F:\Lossless\_DJ Stakan\Santana\2011 - The Very Best Of\13 - Jingo.wav

Длина предзазора 0:00:01.58

Пиковый уровень 100.0 %
Скорость извлечения 6.1 X
Качество трека 99.9 %
CRC теста AD5328C7
CRC копии AD5328C7
Точное извлечение (достоверность 66) [40A2F004] (AR v2)
Копирование… OK

Трек 14

Имя файла F:\Lossless\_DJ Stakan\Santana\2011 - The Very Best Of\14 - Everything's Coming Our Way.wav

Длина предзазора 0:00:01.58

Пиковый уровень 100.0 %
Скорость извлечения 8.2 X
Качество трека 100.0 %
CRC теста 70393EE3
CRC копии 70393EE3
Точное извлечение (достоверность 65) [07AA037F] (AR v2)
Копирование… OK

Трек 15

Имя файла F:\Lossless\_DJ Stakan\Santana\2011 - The Very Best Of\15 - Hold On.wav

Длина предзазора 0:00:01.58

Пиковый уровень 100.0 %
Скорость извлечения 8.6 X
Качество трека 100.0 %
CRC теста 9068B559
CRC копии 9068B559
Точное извлечение (достоверность 67) [06BCB76F] (AR v2)
Копирование… OK

Трек 16

Имя файла F:\Lossless\_DJ Stakan\Santana\2011 - The Very Best Of\16 - One Chain (Don't Make No Prison).wav

Длина предзазора 0:00:01.58

Пиковый уровень 100.0 %
Скорость извлечения 9.5 X
Качество трека 100.0 %
CRC теста ED93448A
CRC копии ED93448A
Точное извлечение (достоверность 67) [23F68867] (AR v2)
Копирование… OK

Трек 17

Имя файла F:\Lossless\_DJ Stakan\Santana\2011 - The Very Best Of\17 - Lightning In The Sky.wav

Длина предзазора 0:00:01.58

Пиковый уровень 100.0 %
Скорость извлечения 9.2 X
Качество трека 100.0 %
CRC теста A186412F
CRC копии A186412F
Точное извлечение (достоверность 66) [8A3469A2] (AR v2)
Копирование… OK

Трек 18

Имя файла F:\Lossless\_DJ Stakan\Santana\2011 - The Very Best Of\18 - Aqua Marine.wav

Длина предзазора 0:00:01.58

Пиковый уровень 100.0 %
Скорость извлечения 9.8 X
Качество трека 100.0 %
CRC теста 145CE797
CRC копии 145CE797
Точное извлечение (достоверность 65) [9E68665A] (AR v2)
Копирование… OK

Трек 19

Имя файла F:\Lossless\_DJ Stakan\Santana\2011 - The Very Best Of\19 - Travellin' Blues.wav

Длина предзазора 0:00:01.58

Пиковый уровень 100.0 %
Скорость извлечения 9.8 X
Качество трека 100.0 %
CRC теста CD1519FA
CRC копии CD1519FA
Точное извлечение (достоверность 64) [CFC92BF5] (AR v2)
Копирование… OK


Все треки извлечены точно

Ошибок не произошло

Конец отчёта

–– CUETools DB Plugin V2.1.6

[CTDB TOCID: NbhfnqhdZyc4NPRuH8blOtBS.rQ-] found
Submit result: NbhfnqhdZyc4NPRuH8blOtBS.rQ- has been confirmed
Track | CTDB Status
1 | (247/247) Accurately ripped
2 | (247/247) Accurately ripped
3 | (247/247) Accurately ripped
4 | (246/247) Accurately ripped
5 | (246/247) Accurately ripped
6 | (247/247) Accurately ripped
7 | (247/247) Accurately ripped
8 | (246/247) Accurately ripped
9 | (246/247) Accurately ripped
10 | (247/247) Accurately ripped
11 | (246/247) Accurately ripped
12 | (245/247) Accurately ripped
13 | (245/247) Accurately ripped
14 | (247/247) Accurately ripped
15 | (246/247) Accurately ripped
16 | (245/247) Accurately ripped
17 | (246/247) Accurately ripped
18 | (246/247) Accurately ripped
19 | (245/247) Accurately ripped


==== Контрольная сумма отчёта DE44F220AE3955352974BD23375B8BE7CAA6A5DCC2243FA08A4C2FB8379A2DDE ====

Santana - The Very Best Of Santana (2011)


All thanks go to DJ Stakan

>>> Santana in my Blog <<<

DOWNLOAD: