Subcategories

Santana - Ultimate Santana (2007)

Posted By: popsakov
Santana - Ultimate Santana (2007)

Santana - Ultimate Santana (2007)
EAC Rip | FLAC (Img) + Cue + Log ~ 564 Mb | MP3 CBR320 ~ 187 Mb
Full Scans ~ 44 Mb | 01:17:41 | RAR 5% Recovery
Latin Rock / Blues / Blues Rock / Electronic / Fusion / R&B
Arista / Columbia / Legacy #88697 15502 2

Ultimate Santana is a collection by rock band Santana, combining hits from recent albums Supernatural, Shaman and All That I Am with early classics. Amongst the 18 tracks there are three new recordings. On November 3, 2007 the album debuted at number eight on the U.S. Billboard 200 chart.

Billed as the first Santana compilation to span his entire career, it is true that Ultimate Santana does indeed run the gamut from 1969's "Evil Ways" to 2002's "Game of Love," but if you think that means it handles all phases of his career equally, you'd be sadly mistaken. Essentially, this 18-track set plays like a collection of highlights from his Supernatural-era comebacks, spiked with a couple of classic rock oldies – because that's what it really is. It contains no less than ten superstar duets, including new numbers with Nickelback's Chad Kroeger (the streamlined and smoothed "Into the Night," which has little of Kroeger's trademark growly histrionics) and Jennifer Lopez and Baby Bash ("This Boy's Fire," a dance number where Santana seems incidental), plus a version of "The Game of Love" with Tina Turner (don't worry, the lighter, brighter, superior Michelle Branch version is here too) and plus "Interplanetary Party," which is a new band recording that sounds like a star duet. These are piled upon seven previously released duets – including, of course, the hits "Smooth," "Maria Maria," and "The Game of Love," but also album tracks with Everlast, Steven Tyler, and Alex Band of the Calling – with classic rock radio staples "Oye Como Va," "Black Magic Woman," "Evil Ways," "Europa," "Samba Pa Ti," and "No One to Depend On" for good measure. In other words, this is certainly not a hits disc for the fan of his earliest music, or his most adventurous music either; it's for the pop fans won over by his latter-day comeback, and for those listeners, it's the hits disc they'd want – but for everybody else, it's better to seek out other compilations or original albums, because those paint a better picture of what Santana was all about than this crisp, clean collection of lifestyle pop.

~ Stephen Thomas Erlewine, All Music
Santana - Ultimate Santana (2007)


***************

Santana - Ultimate Santana (2007)

Track List:

01. Into the Night (featuring Chad Kroeger) [3:42]
02. Smooth (Radio Edit, featuring Rob Thomas) [4:56]
03. Maria Maria (featuring The Product G&B) [4:21]
04. This Boy's Fire (featuring Jennifer Lopez & Baby Bash) [3:30]
05. She's Not There [4:09]
06. Black Magic Woman [3:16]
07. The Game of Love (featuring Michelle Branch) [4:14]
08. Samba Pa Ti [4:45]
09. Evil Ways [3:56]
10. Put Your Lights On (featuring Everlast) [4:46]
11. CorazA.n Espinado (featuring ManA.) [4:36]
12. Why Don't You & I (featuring Alex Band of The Calling) [3:51]
13. Just Feel Better (featuring Steven Tyler) [4:12]
14. Europa (Earth's Cry Heaven's Smile) [5:06]
15. No One to Depend On [5:34]
16. Oye Como Va [4:18]
17. Interplanetary Party [4:07]
18. The Game of Love (featuring Tina Turner) [4:21]

Exact Audio Copy V1.0 beta 3 from 29. August 2011

EAC extraction logfile from 6. August 2015, 22:35

Santana / Ultimate Santana

Used drive : PLEXTOR BD-R PX-B940SA Adapter: 5 ID: 0

Read mode : Secure
Utilize accurate stream : Yes
Defeat audio cache : Yes
Make use of C2 pointers : No

Read offset correction : 667
Overread into Lead-In and Lead-Out : No
Fill up missing offset samples with silence : Yes
Delete leading and trailing silent blocks : No
Null samples used in CRC calculations : Yes
Used interface : Installed external ASPI interface

Used output format : User Defined Encoder
Selected bitrate : 128 kBit/s
Quality : High
Add ID3 tag : Yes
Command line compressor : G:\Program Files (x86)\Exact Audio Copy\Flac\flac.exe
Additional command line options : -V -8 -T "Date=%year%" -T "Genre=%genre%" %source%


TOC of the extracted CD

Track | Start | Length | Start sector | End sector
––––––––––––––––––––––––––––-
1 | 0:00.00 | 3:42.33 | 0 | 16682
2 | 3:42.33 | 4:55.74 | 16683 | 38881
3 | 8:38.32 | 4:21.37 | 38882 | 58493
4 | 12:59.69 | 3:30.15 | 58494 | 74258
5 | 16:30.09 | 4:09.11 | 74259 | 92944
6 | 20:39.20 | 3:15.65 | 92945 | 107634
7 | 23:55.10 | 4:14.16 | 107635 | 126700
8 | 28:09.26 | 4:45.14 | 126701 | 148089
9 | 32:54.40 | 3:55.61 | 148090 | 165775
10 | 36:50.26 | 4:45.57 | 165776 | 187207
11 | 41:36.08 | 4:35.62 | 187208 | 207894
12 | 46:11.70 | 3:51.25 | 207895 | 225244
13 | 50:03.20 | 4:12.33 | 225245 | 244177
14 | 54:15.53 | 5:05.71 | 244178 | 267123
15 | 59:21.49 | 5:34.11 | 267124 | 292184
16 | 64:55.60 | 4:18.18 | 292185 | 311552
17 | 69:14.03 | 4:06.55 | 311553 | 330057
18 | 73:20.58 | 4:20.49 | 330058 | 349606


Range status and errors

Selected range

Filename D:\MUSIC\Santana - Ultimate Santana.wav

Peak level 98.9 %
Extraction speed 5.3 X
Range quality 100.0 %
Test CRC 25E3F6A5
Copy CRC 25E3F6A5
Copy OK

No errors occurred


AccurateRip summary

Track 1 accurately ripped (confidence 65) [3C0F80C3] (AR v2)
Track 2 accurately ripped (confidence 68) [BF373AA2] (AR v2)
Track 3 accurately ripped (confidence 67) [55516BA6] (AR v2)
Track 4 accurately ripped (confidence 65) [9816064C] (AR v2)
Track 5 accurately ripped (confidence 68) [4F372361] (AR v2)
Track 6 accurately ripped (confidence 67) [9769DA1D] (AR v2)
Track 7 accurately ripped (confidence 65) [50C3EF87] (AR v2)
Track 8 accurately ripped (confidence 67) [CA3844E3] (AR v2)
Track 9 accurately ripped (confidence 68) [022C940D] (AR v2)
Track 10 accurately ripped (confidence 66) [8D00191B] (AR v2)
Track 11 accurately ripped (confidence 66) [BD16B952] (AR v2)
Track 12 accurately ripped (confidence 65) [8B27727C] (AR v2)
Track 13 accurately ripped (confidence 66) [28B41B9A] (AR v2)
Track 14 accurately ripped (confidence 66) [69805563] (AR v2)
Track 15 accurately ripped (confidence 66) [96590453] (AR v2)
Track 16 accurately ripped (confidence 67) [9403E2A3] (AR v2)
Track 17 accurately ripped (confidence 66) [6F1350F6] (AR v2)
Track 18 accurately ripped (confidence 65) [ECF5C063] (AR v2)

All tracks accurately ripped

End of status report

==== Log checksum 9733EB9AC9EFC0571BBBB459EF44C563EF5A9A991DBD0ED7E7D084AC540B351D ====

[CUETools log; Date: 11.11.2016 22:05:48; Version: 2.1.5]
[CTDB TOCID: nyYW7mXzu9xEisEMxqaJ91HcoE8-] found.
Track | CTDB Status
1 | (524/525) Accurately ripped
2 | (524/525) Accurately ripped
3 | (524/525) Accurately ripped
4 | (523/525) Accurately ripped
5 | (523/525) Accurately ripped
6 | (522/525) Accurately ripped
7 | (523/525) Accurately ripped
8 | (522/525) Accurately ripped
9 | (524/525) Accurately ripped
10 | (524/525) Accurately ripped
11 | (523/525) Accurately ripped
12 | (524/525) Accurately ripped
13 | (520/525) Accurately ripped
14 | (522/525) Accurately ripped
15 | (521/525) Accurately ripped
16 | (518/525) Accurately ripped, or (3/525) differs in 166 samples @03:39:71-03:39:72,03:41:23-03:41:24,03:41:30,03:46:27,03:49:18,03:50:03,03:50:42,03:52:09,03:53:64-03:53:66,03:55:01,03:59:50,04:04:18,04:05:51,04:09:01,04:10:54,04:12:20,04:15:65
17 | (515/525) Accurately ripped, or (3/525) differs in 455 samples @00:01:04,00:01:48,00:02:34-00:02:35,00:02:62,00:04:46,00:05:57,00:05:70,00:08:04-00:08:05,00:12:72,00:13:07,00:13:16,00:15:26-00:15:32,00:17:61,00:20:51,00:22:17,00:22:73,00:24:62-00:24:63,00:25:64,00:28:27,00:29:01,00:29:65-00:29:66,00:30:01-00:30:02,00:34:14,00:34:35,00:35:68,00:37:18,00:38:31,00:39:09,00:41:16,00:41:27,00:41:41,00:42:59,00:44:33,00:45:44,00:45:74,00:47:29-00:47:30,00:48:42-00:48:43,00:52:54-00:52:58,00:54:47,00:56:27-00:56:31,00:57:08,00:58:70,01:01:39,01:02:72,01:03:70,01:07:64-01:07:65,01:09:32,01:18:04,01:18:29,01:19:35,01:22:32,01:23:11
18 | (515/525) Accurately ripped
[AccurateRip ID: 003181e6-02984318-05123512] found.
Track [ CRC | V2 ] Status
01 [1b214435|3c0f80c3] (047+078/485) Accurately ripped
02 [743d1bb2|bf373aa2] (046+081/494) Accurately ripped
03 [3be21ace|55516ba6] (046+080/490) Accurately ripped
04 [2b764962|9816064c] (043+078/486) Accurately ripped
05 [b9acba7e|4f372361] (044+081/491) Accurately ripped
06 [bcb5ff1b|9769da1d] (042+080/480) Accurately ripped
07 [30bc5158|50c3ef87] (047+078/488) Accurately ripped
08 [dcc5a182|ca3844e3] (044+080/487) Accurately ripped
09 [489a4f61|022c940d] (043+081/488) Accurately ripped
10 [0fd3af79|8d00191b] (045+079/484) Accurately ripped
11 [545304ee|bd16b952] (044+079/484) Accurately ripped
12 [40853e9a|8b27727c] (044+078/483) Accurately ripped
13 [423c6429|28b41b9a] (045+079/483) Accurately ripped
14 [d82527df|69805563] (046+079/485) Accurately ripped
15 [40258d09|96590453] (043+079/478) Accurately ripped
16 [52109e4b|9403e2a3] (044+080/482) Accurately ripped
17 [7246f4e0|6f1350f6] (044+079/474) Accurately ripped
18 [b8d767a6|ecf5c063] (043+078/456) Accurately ripped
Offsetted by -12:
01 [9096c440] (151/485) Accurately ripped
02 [5aa564d7] (155/494) Accurately ripped
03 [85b95435] (155/490) Accurately ripped
04 [04dfcfd9] (157/486) Accurately ripped
05 [769cbdb1] (157/491) Accurately ripped
06 [a6267769] (151/480) Accurately ripped
07 [7660fafb] (156/488) Accurately ripped
08 [b9c97f84] (158/487) Accurately ripped
09 [a21f4a9b] (156/488) Accurately ripped
10 [f5413e4f] (155/484) Accurately ripped
11 [1af86492] (154/484) Accurately ripped
12 [ac546579] (156/483) Accurately ripped
13 [97a7e6d2] (154/483) Accurately ripped
14 [26e9b670] (157/485) Accurately ripped
15 [2554bb77] (155/478) Accurately ripped
16 [1c13a2d6] (156/482) Accurately ripped
17 [e106c2a5] (151/474) Accurately ripped
18 [807ae55c] (142/456) Accurately ripped
Offsetted by 308:
01 [a6c27862] (002/485) Accurately ripped
02 [2dc20b48] (002/494) Accurately ripped
03 [ccd58e69] (002/490) Accurately ripped
04 [4e81f343] (002/486) Accurately ripped
05 [9b179121] (002/491) Accurately ripped
06 [90601120] (002/480) Accurately ripped
07 [e704f8c5] (002/488) Accurately ripped
08 [fcad5b71] (002/487) Accurately ripped
09 [1a138c43] (002/488) Accurately ripped
10 [40b0ce2d] (002/484) Accurately ripped
11 [3b80c0b1] (002/484) Accurately ripped
12 [40e6753c] (002/483) Accurately ripped
13 [d8ab7dc9] (002/483) Accurately ripped
14 [2e459768] (002/485) Accurately ripped
15 [bd783acf] (002/478) Accurately ripped
16 [7e9d8d16] (002/482) Accurately ripped
17 [2bbd1242] (002/474) Accurately ripped
18 [2e2824f1] (002/456) Accurately ripped
Offsetted by -745:
01 [461b91ce] (000/485) No match
02 [25b9da46] (000/494) No match
03 [e4cde874] (000/490) No match
04 [88a0116c] (000/486) No match
05 [5e73cd85] (000/491) No match
06 [d3bdf50d] (000/480) No match
07 [286e566b] (000/488) No match
08 [c16a4dc0] (000/487) No match
09 [62d69e76] (000/488) No match
10 [4cfd8eb0] (000/484) No match
11 [d5cd8115] (000/484) No match
12 [ebd311ad] (000/483) No match
13 [78d774b7] (000/483) No match
14 [a663cfc5] (000/485) No match
15 [772eb7d5] (000/478) No match
16 [3af188a1] (000/482) No match
17 [1af4a6be] (000/474) No match (V2 was not tested)
18 [9b43fcd5] (000/456) No match (V2 was not tested)
Offsetted by -688:
01 [1c630435] (000/485) No match (V2 was not tested)
02 [0048ef5d] (000/494) No match (V2 was not tested)
03 [cce58219] (000/490) No match (V2 was not tested)
04 [f609b9c7] (000/486) No match (V2 was not tested)
05 [b65e78be] (000/491) No match (V2 was not tested)
06 [4d8db9e6] (000/480) No match (V2 was not tested)
07 [18121c67] (000/488) No match (V2 was not tested)
08 [05f947a7] (000/487) No match (V2 was not tested)
09 [82e6b7b3] (000/488) No match (V2 was not tested)
10 [ad70737e] (000/484) No match (V2 was not tested)
11 [a02dbb31] (000/484) No match (V2 was not tested)
12 [9b9c18ba] (000/483) No match (V2 was not tested)
13 [ca8573c7] (000/483) No match (V2 was not tested)
14 [36bc3ccb] (000/485) No match (V2 was not tested)
15 [1256cd84] (000/478) No match (V2 was not tested)
16 [af272afd] (000/482) No match (V2 was not tested)
17 [95259d09] (000/474) No match (V2 was not tested)
18 [80986473] (000/456) No match (V2 was not tested)
Offsetted by -658:
01 [e7ab3a8a] (000/485) No match (V2 was not tested)
02 [7265f12a] (000/494) No match (V2 was not tested)
03 [1da6d281] (000/490) No match (V2 was not tested)
04 [b4ecbf25] (000/486) No match (V2 was not tested)
05 [a757dc9b] (000/491) No match (V2 was not tested)
06 [f337d242] (000/480) No match (V2 was not tested)
07 [59915235] (000/488) No match (V2 was not tested)
08 [542fde29] (000/487) No match (V2 was not tested)
09 [62c68361] (000/488) No match (V2 was not tested)
10 [c1c7e3d6] (000/484) No match (V2 was not tested)
11 [84f20364] (000/484) No match (V2 was not tested)
12 [8d268b5f] (000/483) No match (V2 was not tested)
13 [c41e1392] (000/483) No match (V2 was not tested)
14 [2c4999b7] (000/485) No match (V2 was not tested)
15 [05bf8d18] (000/478) No match (V2 was not tested)
16 [3dd8aaf3] (000/482) No match (V2 was not tested)
17 [074d2ac3] (000/474) No match (V2 was not tested)
18 [faed00c2] (000/456) No match (V2 was not tested)
Offsetted by -646:
01 [896c242f] (000/485) No match (V2 was not tested)
02 [bfe06363] (000/494) No match (V2 was not tested)
03 [5f328f86] (000/490) No match (V2 was not tested)
04 [f846e79e] (000/486) No match (V2 was not tested)
05 [f0cbecb3] (000/491) No match (V2 was not tested)
06 [a1af588d] (000/480) No match (V2 was not tested)
07 [8141a89f] (000/488) No match (V2 was not tested)
08 [5af39103] (000/487) No match (V2 was not tested)
09 [bebb0816] (000/488) No match (V2 was not tested)
10 [1e5c2016] (000/484) No match (V2 was not tested)
11 [64133f35] (000/484) No match (V2 was not tested)
12 [cb220ec3] (000/483) No match (V2 was not tested)
13 [06e965f0] (000/483) No match (V2 was not tested)
14 [f849cab5] (000/485) No match (V2 was not tested)
15 [fb623887] (000/478) No match (V2 was not tested)
16 [882c8ebd] (000/482) No match (V2 was not tested)
17 [4a90464c] (000/474) No match (V2 was not tested)
18 [8d0728d7] (000/456) No match (V2 was not tested)
Offsetted by -80:
01 [3cbed2ec] (000/485) No match (V2 was not tested)
02 [cc1c972b] (000/494) No match (V2 was not tested)
03 [95182f3f] (000/490) No match (V2 was not tested)
04 [debe6287] (000/486) No match (V2 was not tested)
05 [eb560add] (000/491) No match (V2 was not tested)
06 [2c0ccb7b] (000/480) No match (V2 was not tested)
07 [ad2980e5] (000/488) No match (V2 was not tested)
08 [525e57cb] (000/487) No match (V2 was not tested)
09 [66f0b034] (000/488) No match (V2 was not tested)
10 [07453891] (000/484) No match (V2 was not tested)
11 [b55a32aa] (000/484) No match (V2 was not tested)
12 [48bc24a6] (000/483) No match (V2 was not tested)
13 [6f00aa11] (000/483) No match (V2 was not tested)
14 [96e268c0] (000/485) No match (V2 was not tested)
15 [55f1ec8d] (000/478) No match (V2 was not tested)
16 [56f9ca19] (000/482) No match (V2 was not tested)
17 [e2aadacf] (000/474) No match (V2 was not tested)
18 [96d858f8] (000/456) No match (V2 was not tested)
Offsetted by -66:
01 [fca88daa] (000/485) No match (V2 was not tested)
02 [8cd5bf3d] (000/494) No match (V2 was not tested)
03 [93383d3b] (000/490) No match (V2 was not tested)
04 [8c859d5b] (000/486) No match (V2 was not tested)
05 [c5bc5fc5] (000/491) No match (V2 was not tested)
06 [442d8710] (000/480) No match (V2 was not tested)
07 [b6a289dc] (000/488) No match (V2 was not tested)
08 [aadc05d7] (000/487) No match (V2 was not tested)
09 [8bc58155] (000/488) No match (V2 was not tested)
10 [423595ae] (000/484) No match (V2 was not tested)
11 [88919b7a] (000/484) No match (V2 was not tested)
12 [3f43947a] (000/483) No match (V2 was not tested)
13 [30b9a4b2] (000/483) No match (V2 was not tested)
14 [2f54b705] (000/485) No match (V2 was not tested)
15 [b349886c] (000/478) No match (V2 was not tested)
16 [6ca99618] (000/482) No match (V2 was not tested)
17 [8c627cbc] (000/474) No match (V2 was not tested)
18 [163b3209] (000/456) No match (V2 was not tested)
Offsetted by -36:
01 [4a74a1f1] (000/485) No match (V2 was not tested)
02 [2fe69e80] (000/494) No match (V2 was not tested)
03 [b9eb5032] (000/490) No match (V2 was not tested)
04 [8d8c8cbb] (000/486) No match (V2 was not tested)
05 [df68eb31] (000/491) No match (V2 was not tested)
06 [271670e1] (000/480) No match (V2 was not tested)
07 [8818bfbb] (000/488) No match (V2 was not tested)
08 [d92e755d] (000/487) No match (V2 was not tested)
09 [667b2a2b] (000/488) No match (V2 was not tested)
10 [0ac75c05] (000/484) No match (V2 was not tested)
11 [765c7f18] (000/484) No match (V2 was not tested)
12 [2ccbb2c5] (000/483) No match (V2 was not tested)
13 [9fe62bd5] (000/483) No match (V2 was not tested)
14 [40c37336] (000/485) No match (V2 was not tested)
15 [69498a52] (000/478) No match (V2 was not tested)
16 [43fb7e38] (000/482) No match (V2 was not tested)
17 [cb4ce365] (000/474) No match (V2 was not tested)
18 [888c53d7] (000/456) No match (V2 was not tested)
Offsetted by -30:
01 [f6ed27a9] (002/485) Accurately ripped
02 [68a2e3c3] (002/494) Accurately ripped
03 [7f543e1c] (002/490) Accurately ripped
04 [efe95449] (000/486) No match
05 [ee68b868] (000/491) No match
06 [43ae7e24] (000/480) No match
07 [30834c43] (000/488) No match
08 [836888e0] (000/487) No match
09 [b7280f45] (000/488) No match
10 [3d6c1ef6] (000/484) No match
11 [5105fce7] (000/484) No match
12 [fbb9cb0b] (000/483) No match
13 [2342ae72] (000/483) No match
14 [e8574bca] (000/485) No match
15 [55b7f320] (000/478) No match
16 [4ba92a4e] (000/482) No match
17 [321b7ef8] (000/474) No match
18 [f131bcc1] (000/456) No match
Offsetted by -18:
01 [1ba9cad9] (002/485) Accurately ripped
02 [4a5b41ed] (002/494) Accurately ripped
03 [ff852315] (002/490) Accurately ripped
04 [674ee80d] (002/486) Accurately ripped
05 [a960ab71] (002/491) Accurately ripped
06 [21cc045e] (002/480) Accurately ripped
07 [c26adffd] (002/488) Accurately ripped
08 [451ec302] (002/487) Accurately ripped
09 [a7452b3d] (002/488) Accurately ripped
10 [14ba659d] (002/484) Accurately ripped
11 [b24fa690] (002/484) Accurately ripped
12 [8f1e4ea4] (002/483) Accurately ripped
13 [14f742e7] (002/483) Accurately ripped
14 [faec7d5d] (000/485) No match (V2 was not tested)
15 [3f7feabd] (000/478) No match
16 [af5b99ff] (002/482) Accurately ripped
17 [c72cdf3d] (002/474) Accurately ripped
18 [ac9813e6] (002/456) Accurately ripped
Offsetted by 36:
01 [7d8edd5f] (000/485) No match (V2 was not tested)
02 [38b7cf4a] (000/494) No match (V2 was not tested)
03 [d2d68c53] (000/490) No match (V2 was not tested)
04 [7e68f603] (000/486) No match (V2 was not tested)
05 [a0f3ffb9] (000/491) No match (V2 was not tested)
06 [54d3276e] (000/480) No match (V2 was not tested)
07 [b86a81a5] (000/488) No match (V2 was not tested)
08 [c188a6fd] (000/487) No match (V2 was not tested)
09 [abb6d1bf] (000/488) No match (V2 was not tested)
10 [e993a374] (000/484) No match (V2 was not tested)
11 [dd7601d9] (000/484) No match (V2 was not tested)
12 [5e222156] (000/483) No match (V2 was not tested)
13 [f42b2c1a] (000/483) No match (V2 was not tested)
14 [d1c59cd3] (000/485) No match (V2 was not tested)
15 [48a0438e] (000/478) No match (V2 was not tested)
16 [cadf4a28] (000/482) No match (V2 was not tested)
17 [16748b9a] (000/474) No match (V2 was not tested)
18 [b2c03e18] (000/456) No match (V2 was not tested)

Track Peak [ CRC32 ] [W/O NULL] [ LOG ]
– 98,9 [25E3F6A5] [56B157D6] CRC32
01 97,7 [A1EFFB32] [85029CBE]
02 95,0 [B3DCF8C7] [26471810]
03 97,7 [7210737A] [68CD2883]
04 97,7 [3EEB96E4] [34EADE08]
05 95,7 [0BB8AE2F] [B6698C10]
06 97,7 [418665A9] [6BA679DB]
07 98,9 [5B9D9C84] [18B2C6A4]
08 97,0 [BB931375] [53276B19]
09 96,4 [18F1A966] [95D93ADD]
10 97,8 [E2B81DF9] [EA8756F2]
11 96,4 [55038BE3] [60FC7722]
12 97,7 [88D5530A] [691AD4AE]
13 97,7 [9A32A932] [212EC3AA]
14 97,7 [C799B6A3] [D66A5717]
15 97,3 [356CB076] [DA14289E]
16 97,3 [AF32504F] [271ABF45]
17 97,7 [22697C24] [1BC46B5E]
18 97,7 [7883104C] [72A372C6]

Santana - Ultimate Santana (2007)


All thanks go to RD

>>> Santana in my Blog <<<

DOWNLOAD: