Subcategories

Santana - 2 Studio Almums (1969-1972) [MFSL, 2007-2011] (Repost)

Posted By: gribovar
Santana - 2 Studio Almums (1969-1972) [MFSL, 2007-2011] (Repost)

Santana - 2 Studio Almums (1969-1972) [MFSL, 2007-2011]
EAC Rip | WavPack (image+.cue+log) - 545 MB | MP3 CBR 320 kbps (LAME 3.93) - 209 MB | Covers - 78 MB
Genre: Psychedelic Rock/Fusion | RAR 3% Rec. | Label: Mobile Fidelity Sound Lab

Santana - Santana (1969). Santana’s self-titled debut album announces the arrival of a new Guitar God. Made during the legendary bandleader’s most fruitful and creative period, the classic 1969 set functions as an accessible entry point into the tangy worlds of Latin music by way of an intoxicating blend of Afro-Cuban percussion, jazzy tempos, exotic leads, bluesy riffs, and psychedelic accents. Indeed, separation between Carlos Santana’s fluid fills, spicy solos, and broiling grooves and pianist Gregg Rolie’s soulful Hammond organ runs allows the music to come alive with a newfound freshness and radiance. Songs simmer, with each passage bursting forth with vibrant color.
Bound by natural chemistry and earthy spirituality, the record’s innovative synthesis of myriad styles goes beyond anything that came before - as well as nearly everything that’s followed. Playing with the finest band that the iconic guitarist ever had, Santana doesn’t water down any exotic roots or simply incorporate mainstream Western styles into a Latin framework. This is a true hybrid, responsible for opening up borders, transcending cultural divides, and, most importantly, exhilarating the senses.

Santana - Caravanserai (1972). Recorded in 1972, Santana’s landmark Caravanserai marks the legendary guitarist’s foray into the jazzier, more adventurous territory that would define his career for the better part of the next two decades. Drawing from Miles Davis’ pioneering period work, Santana ups the musical complexity, ditching vocals on most tracks and embracing moodiness as a form of expression. Despite its sharp move away from conventional structures, Caravanserai reached the Top 10 of theBillboard charts and attained lavish critical acclaim.
The last Santana effort to feature guitarist Neil Schon and organist Greg Rollie, who would leave and form Journey,Caravanserai also welcomed the arrival of keyboardist/composer Tom Coster, whose impact is immediately felt. Displaying no hints of the discord that would cause the ensemble to splinter after the record’s release, the band seamlessly melds withSantana’s divine jaunts into instrumental nirvana. And while prior releases spread the wealth, Santana’s role here is evidently clear from the start - this is where he’s elevated from a pioneering star to a guitar god. His guitar effortlessly darts amidst a rich aural canvas, knitted with contributions from a sextet of percussionists as well as Schon’s magisterial efforts.
With Santana, nothing is more important than soulfulness. And the profound spirituality and heartfelt expressiveness that pulse throughout the ten songs here are on par with the most personalized playing and music making he’s ever done. The highly original Caravanserai distinguishes itself from most instrumentally based albums in that its purpose isn’t to tout virtuosic jamming abilities but to take the listener places they’ve never been, and do so in a manner that’s cohesive, focused, and inventive. Santana delves deeply into jazz’s boundless possibilities without exploiting technique or structure, arriving at sonic intersections where jazz is the main landing spot for soul, Latin, and funk tangents.

Santana - 2 Studio Almums (1969-1972) [MFSL, 2007-2011] (Repost)

Santana - Santana (1969) [MFSL, 2007]
EAC Rip | WavPack (image+.cue+log) - 232 MB | MP3 CBR 320 kbps (LAME 3.93) - 88 MB | Covers - 28 MB
Genre: Psychedelic Rock/Fusion | RAR 3% Rec. | Label: Mobile Fidelity Sound Lab (UDCD 773)

Tracklist:
01. Waiting
02. Evil Ways
03. Shades of Time
04. Savor
05. Jingo
06. Persuasion
07. Treat
08. You Just Don't Care
09. Soul Sacrifice

Total time: 37:24

Exact Audio Copy V1.0 beta 1 from 15. November 2010

EAC extraction logfile from 26. December 2010, 12:01

Santana / Santana [MFSL UDCD 773]

Used drive : Optiarc DVD RW AD-7200S Adapter: 2 ID: 0

Read mode : Secure
Utilize accurate stream : Yes
Defeat audio cache : Yes
Make use of C2 pointers : No

Read offset correction : 48
Overread into Lead-In and Lead-Out : No
Fill up missing offset samples with silence : Yes
Delete leading and trailing silent blocks : No
Null samples used in CRC calculations : Yes
Used interface : Installed external ASPI interface

Used output format : User Defined Encoder
Selected bitrate : 1024 kBit/s
Quality : High
Add ID3 tag : No
Command line compressor : C:\Program Files\Exact Audio Copy\wavpack-4.60.1\wavpack.exe
Additional command line options : -hlm %s


TOC of the extracted CD

Track | Start | Length | Start sector | End sector
––––––––––––––––––––––––––––-
1 | 0:00.00 | 4:08.35 | 0 | 18634
2 | 4:08.35 | 4:00.47 | 18635 | 36681
3 | 8:09.07 | 3:14.19 | 36682 | 51250
4 | 11:23.26 | 2:46.36 | 51251 | 63736
5 | 14:09.62 | 4:26.72 | 63737 | 83758
6 | 18:36.59 | 2:37.39 | 83759 | 95572
7 | 21:14.23 | 4:48.52 | 95573 | 117224
8 | 26:03.00 | 4:39.07 | 117225 | 138156
9 | 30:42.07 | 6:41.71 | 138157 | 168302


Range status and errors

Selected range

Filename D:\music\Santana\Santana - Santana [MFSL UDCD 773].wav

Peak level 100.0 %
Extraction speed 0.6 X
Range quality 100.0 %
Test CRC 86FCFAA6
Copy CRC 86FCFAA6
Copy OK

No errors occurred


AccurateRip summary

Track 1 accurately ripped (confidence 2) [16A13A13]
Track 2 accurately ripped (confidence 2) [26B763AC]
Track 3 accurately ripped (confidence 2) [C9C1B1C3]
Track 4 accurately ripped (confidence 2) [895534A8]
Track 5 accurately ripped (confidence 2) [45349FD3]
Track 6 accurately ripped (confidence 2) [F5DB935D]
Track 7 accurately ripped (confidence 2) [77AD67B2]
Track 8 accurately ripped (confidence 2) [FC613E13]
Track 9 accurately ripped (confidence 2) [90019C33]

All tracks accurately ripped

End of status report

==== Log checksum B1A187B42F6A052733F546A2FA5E710CC167A82B3FFDB7A2E69FC5AD38C5A0FE ====

[CUETools log; Date: 16.03.2017 16:04:14; Version: 2.1.4]
[CTDB TOCID: TMRN.wQMINADRjVRgayckiaLwoU-] found.
Track | CTDB Status
1 | (41/41) Accurately ripped
2 | (40/41) Accurately ripped
3 | (41/41) Accurately ripped
4 | (41/41) Accurately ripped
5 | (41/41) Accurately ripped
6 | (41/41) Accurately ripped
7 | (41/41) Accurately ripped
8 | (41/41) Accurately ripped
9 | (41/41) Accurately ripped
[AccurateRip ID: 000bccca-0057143e-7508c409] found.
Track [ CRC | V2 ] Status
01 [16a13a13|d6f98b11] (051+073/127) Accurately ripped
02 [26b763ac|12862260] (050+073/126) Accurately ripped
03 [c9c1b1c3|ac5e981d] (050+073/126) Accurately ripped
04 [895534a8|94caa462] (050+073/126) Accurately ripped
05 [45349fd3|38294d7a] (049+073/125) Accurately ripped
06 [f5db935d|d34f034c] (050+073/126) Accurately ripped
07 [77ad67b2|fd0c18e5] (050+073/126) Accurately ripped
08 [fc613e13|ec33a11c] (050+073/126) Accurately ripped
09 [90019c33|3db01620] (050+073/126) Accurately ripped
Offsetted by -6:
01 [1df30569] (003/127) Accurately ripped
02 [a3fbfa5a] (003/126) Accurately ripped
03 [bf4728de] (003/126) Accurately ripped
04 [2a931d43] (003/126) Accurately ripped
05 [64bd6b81] (003/125) Accurately ripped
06 [517946cd] (003/126) Accurately ripped
07 [9eca7e0a] (003/126) Accurately ripped
08 [c759f09b] (003/126) Accurately ripped
09 [e751f74f] (003/126) Accurately ripped

Track Peak [ CRC32 ] [W/O NULL] [ LOG ]
– 100,0 [86FCFAA6] [9EDA69CE] CRC32
01 100,0 [5DA1FC88] [B990FA5B]
02 100,0 [84204113] [3C43C9E5]
03 96,2 [59053027] [A2025728]
04 96,0 [1E7B0EF3] [BD9602B5]
05 93,2 [AAEE296E] [8B7397A8]
06 100,0 [CF2AD336] [D26631FD]
07 95,9 [C9D7E1A7] [D8376D3D]
08 100,0 [D396FC95] [22E3D451]
09 100,0 [23CB84FF] [6E9A13AB]

Santana - 2 Studio Almums (1969-1972) [MFSL, 2007-2011] (Repost)

Santana - Caravanserai (1972) [MFSL, 2011]
EAC Rip | WavPack (image+.cue+log) - 313 MB | MP3 CBR 320 kbps (LAME 3.93) - 121 MB | Covers - 50 MB
Genre: Psychedelic Rock/Fusion | RAR 3% Rec. | Label: Mobile Fidelity Sound Lab (UDSACD 2079)

Tracklist:
01. Eternal Caravan Of Reincarnation
02. Waves Within
03. Look Up (To See What's Coming Down)
04. Just In Time To See The Sun
05. Song Of The Wind
06. All The Love Of The Universe
07. Future Primitive
08. Stone Flower
09. La Fuente Del Ritmo
10. Every Step Of The Way

Total time: 51:31

Exact Audio Copy V1.0 beta 3 from 29. August 2011

EAC extraction logfile from 21. November 2011, 20:22

Santana / Caravanserai [UDSACD 2079]

Used drive : Optiarc DVD RW AD-7200S Adapter: 2 ID: 1

Read mode : Secure
Utilize accurate stream : Yes
Defeat audio cache : Yes
Make use of C2 pointers : No

Read offset correction : 48
Overread into Lead-In and Lead-Out : No
Fill up missing offset samples with silence : Yes
Delete leading and trailing silent blocks : No
Null samples used in CRC calculations : Yes
Used interface : Installed external ASPI interface

Used output format : User Defined Encoder
Selected bitrate : 1024 kBit/s
Quality : High
Add ID3 tag : No
Command line compressor : C:\Program Files\Exact Audio Copy\wavpack.exe
Additional command line options : -hm %source% %dest%


TOC of the extracted CD

Track | Start | Length | Start sector | End sector
––––––––––––––––––––––––––––-
1 | 0:00.00 | 4:28.30 | 0 | 20129
2 | 4:28.30 | 3:53.29 | 20130 | 37633
3 | 8:21.59 | 2:59.61 | 37634 | 51119
4 | 11:21.45 | 2:18.32 | 51120 | 61501
5 | 13:40.02 | 6:03.50 | 61502 | 88776
6 | 19:43.52 | 7:41.50 | 88777 | 123401
7 | 27:25.27 | 4:11.13 | 123402 | 142239
8 | 31:36.40 | 6:14.62 | 142240 | 170351
9 | 37:51.27 | 4:33.52 | 170352 | 190878
10 | 42:25.04 | 9:05.38 | 190879 | 231791


Range status and errors

Selected range

Filename C:\lossless\Santana\Santana - Caravanserai [UDSACD 2079].wav

Peak level 97.7 %
Extraction speed 4.0 X
Range quality 99.9 %
Test CRC 4B298BD6
Copy CRC 4B298BD6
Copy OK

No errors occurred

End of status report

–– CUETools DB Plugin V2.1.3

[CTDB TOCID: e7PBR_6UUB.66yGXAYOyPMnnU1M-] found, Submit result: already submitted
[bc03066e] (1/1) Accurately ripped


==== Log checksum D4C5C6103BDE4925E84E06625C10EFD3C7944933FE99279E12F896A7F246B59C ====

[CUETools log; Date: 16.03.2017 16:07:51; Version: 2.1.4]
[CTDB TOCID: e7PBR_6UUB.66yGXAYOyPMnnU1M-] found.
Track | CTDB Status
1 | (41/41) Accurately ripped
2 | (41/41) Accurately ripped
3 | (41/41) Accurately ripped
4 | (41/41) Accurately ripped
5 | (41/41) Accurately ripped
6 | (41/41) Accurately ripped
7 | (41/41) Accurately ripped
8 | (41/41) Accurately ripped
9 | (41/41) Accurately ripped
10 | (41/41) Accurately ripped
[AccurateRip ID: 00110e84-008c3f33-8b0c120a] found.
Track [ CRC | V2 ] Status
01 [baa77207|a849a389] (10+64/74) Accurately ripped
02 [239a7175|056220e0] (10+65/75) Accurately ripped
03 [dff8258b|79ea7767] (10+65/75) Accurately ripped
04 [1e7052ee|bfcca831] (10+65/75) Accurately ripped
05 [bc34a41c|f3a28ddc] (10+65/75) Accurately ripped
06 [82904d3e|4c182f3e] (10+65/75) Accurately ripped
07 [b9c49756|1469af61] (10+64/74) Accurately ripped
08 [b45f6468|bfff6920] (10+64/74) Accurately ripped
09 [70aa2fba|a46e9e7e] (10+66/76) Accurately ripped
10 [8a45237e|e1b8cf34] (10+65/75) Accurately ripped

Track Peak [ CRC32 ] [W/O NULL] [ LOG ]
– 97,7 [4B298BD6] [E07DA156] CRC32
01 42,3 [EBA6F771] [F2E2F5F0]
02 72,4 [88DABC92] [04185C3B]
03 65,7 [C02DEDBA] [F8364633]
04 76,8 [C9E94C41] [7AEED70B]
05 86,3 [0297D286] [74F6F76B]
06 69,2 [93F957F6] [687A88EA]
07 71,5 [737B85A3] [82EC88FC]
08 97,7 [CDE02C12] [DCA29FEB]
09 90,1 [78DE9DB6] [15C236AB]
10 72,6 [15A9B418] [8A587060]

Thanks to taurus66