Subcategories

Santana - 3 Original Album Classics [3CD Box Set] (2010)

Posted By: BlondStyle
Santana - 3 Original Album Classics [3CD Box Set] (2010)

Santana - 3 Original Album Classics [3CD Box Set] (2010)
Jazz, Rock, Blues-Rock, Latin | EAC Rip | FLAC, Tracks+CUE+LOG+Scans (JPEG) | 02:18:51 h. | 804,84 Mb
Label: Columbia/Legacy/Sony Music (EU) | Cat.# 88697626062 | Released: 2010-02-01 (1974/1979/1980)

This is a three classic albums CD box set with the original artworked 'mini LP' CD wallets in deluxe packaging. It contains the albums Illuminations (1974), Oneness: Silver Dreams - Golden Reality (1979) and The Swing Of Delight (1980).
~Amazon UK

Santana - 3 Original Album Classics [3CD Box Set] (2010)

Santana - 3 Original Album Classics [3CD Box Set] (2010)


Release of this Box Set: 2010, February, 1 [CDs Columbia/Legacy/Sony Music (EU), Cat.# 88697626062 / UPC: 886976260620]
© 2010 Sony Music Entertainment.
℗ 1974, 1979, 1980, 2010 Sony Music Entertainment.
Distributed by Sony Music Entertainment.
Made in the E.U.


Note: All albums in vinyl replica sleeves of original releases.

Santana - 3 Original Album Classics (2010):


Santana - 3 Original Album Classics [3CD Box Set] (2010)

CD1: Turiya Alice Coltrane & Devadip Carlos Santana - Illuminations (1974)
Jazz, Free Jazz, Blues-Rock, Latin | EAC Rip | FLAC, Tracks+CUE + LOG + Scans (JPEG) | 35:43 Min | 201,38 Mb
Label: Columbia/Legacy/Sony Music (EU) | Released: 2010-02-01 (1974, September)

For his third duet album, Carlos Santana performed the works of John Coltrane, paired with Coltrane's widow, harpist/keyboardist Alice Coltrane, on this instrumental album. Side One includes several contemplative, string-filled numbers, while Side Two presents Santana's re-creation of John Coltrane's late free jazz style in "Angel of Sunlight." Columbia Records could not have been pleased at Santana's determined drift into esoteric jazz: Illuminations was the first of the nine Santana-related albums so far released in the U.S. not to go gold.
Review by William Ruhlmann


Tracklist:

01. Guru Sri Chinmoy Aphorism (01:12)
02. Angel of Air / Angel of Water (09:56)
03. Bliss: The Eternal Now (05:34)
04. Angel of Sunlight (14:43)
05. Illuminations (04:19)

Exact Audio Copy V1.0 beta 3 from 29. August 2011

EAC extraction logfile from 18. May 2016, 18:23

Devadip Carlos Santana & Turiya Alice Coltrane / Illuminations

Used drive : HL-DT-STDVDRAM GE24NU40 Adapter: 0 ID: 0

Read mode : Secure
Utilize accurate stream : Yes
Defeat audio cache : Yes
Make use of C2 pointers : No

Read offset correction : 6
Overread into Lead-In and Lead-Out : No
Fill up missing offset samples with silence : Yes
Delete leading and trailing silent blocks : No
Null samples used in CRC calculations : Yes
Used interface : Native Win32 interface for Win NT & 2000
Gap handling : Not detected, thus appended to previous track

Used output format : Internal WAV Routines
Sample format : 44.100 Hz; 16 Bit; Stereo


TOC of the extracted CD

Track | Start | Length | Start sector | End sector
––––––––––––––––––––––––––––-
1 | 0:00.32 | 1:11.45 | 32 | 5401
2 | 1:12.02 | 9:55.70 | 5402 | 50096
3 | 11:07.72 | 5:33.38 | 50097 | 75109
4 | 16:41.35 | 14:43.00 | 75110 | 141334
5 | 31:24.35 | 4:18.60 | 141335 | 160744


Track 1

Filename C:\Users\Stan.Stan-PC\Music\[Lossless]\Santana - 2010 Original Album Classics 3\1974 [2010] Illuminataions\01 Ouru Sri Chinmoy Aphorism.wav

Peak level 28.5 %
Extraction speed 0.7 X
Track quality 100.0 %
Copy CRC 5AD9DB6E
Cannot be verified as accurate (confidence 24) [9D1F3C70], AccurateRip returned [2813FD4C] (AR v2)
Copy OK

Track 2

Filename C:\Users\Stan.Stan-PC\Music\[Lossless]\Santana - 2010 Original Album Classics 3\1974 [2010] Illuminataions\02 Angel Of Air - Angel Of Water.wav

Peak level 89.1 %
Extraction speed 1.2 X
Track quality 99.9 %
Copy CRC B7D205DC
Cannot be verified as accurate (confidence 24) [0AC4B4F0], AccurateRip returned [1D09DE40] (AR v2)
Copy OK

Track 3

Filename C:\Users\Stan.Stan-PC\Music\[Lossless]\Santana - 2010 Original Album Classics 3\1974 [2010] Illuminataions\03 Bliss- The Ethernal Now.wav

Peak level 89.1 %
Extraction speed 1.4 X
Track quality 100.0 %
Copy CRC 7D69B429
Cannot be verified as accurate (confidence 24) [088CEAC0], AccurateRip returned [4B7C5181] (AR v2)
Copy OK

Track 4

Filename C:\Users\Stan.Stan-PC\Music\[Lossless]\Santana - 2010 Original Album Classics 3\1974 [2010] Illuminataions\04 Angel Of Sunlight.wav

Peak level 89.1 %
Extraction speed 1.7 X
Track quality 100.0 %
Copy CRC 4FA90945
Cannot be verified as accurate (confidence 24) [BD9A3618], AccurateRip returned [AEE122A2] (AR v2)
Copy OK

Track 5

Filename C:\Users\Stan.Stan-PC\Music\[Lossless]\Santana - 2010 Original Album Classics 3\1974 [2010] Illuminataions\05 Illuminations.wav

Peak level 80.9 %
Extraction speed 1.8 X
Track quality 100.0 %
Copy CRC FE8E7A08
Cannot be verified as accurate (confidence 24) [A82C31DD], AccurateRip returned [6E4FDD46] (AR v2)
Copy OK


No tracks could be verified as accurate
You may have a different pressing from the one(s) in the database

No errors occurred

End of status report

––––––––––––––––––––––––––––––––––––––––
Analyzed: Santana / Illuminations
––––––––––––––––––––––––––––––––––––––––

DR Peak RMS Duration Track
––––––––––––––––––––––––––––––––––––––––
DR8 -10.90 dB -22.79 dB 1:12 01-Ouru Sri Chinmoy Aphorism
DR9 -1.00 dB -13.87 dB 9:56 02-Angel Of Air - Angel Of Water
DR9 -1.00 dB -13.64 dB 5:34 03-Bliss- The Ethernal Now
DR11 -1.00 dB -15.08 dB 14:43 04-Angel Of Sunlight
DR12 -1.84 dB -19.37 dB 4:19 05-Illuminations
––––––––––––––––––––––––––––––––––––––––

Number of tracks: 5
Official DR value: DR10

Samplerate: 44100 Hz
Channels: 2
Bits per sample: 16
Bitrate: 628 kbps
Codec: FLAC
================================================================================


Santana - 3 Original Album Classics [3CD Box Set] (2010)

CD2: Devadip - Oneness: Silver Dreams - Golden Reality (1979)
Jazz, Rock, Psychedelic, Latin | EAC Rip | FLAC, Tracks+CUE + LOG + Scans (JPEG) | 46:01 Min | 280,80 Mb
Label: Columbia/Legacy/Sony Music (EU) | Released: 2010-02-01 (1979, March)

This is the first Carlos Santana solo album. It features members of the Santana band as backup, however, so the difference between a group effort and a solo work seems to be primarily in the musical approach, which is more esoteric, and more varied than on a regular band album. The record is mostly instrumental and given over largely to contemplative ballads, although there is also, for example, in the song "Silver Dreams Golden Smiles," a traditional pop ballad sung by Saunders King.
Review by William Ruhlmann


Tracklist:

01. The Chosen Hour (00:35)
02. Arise Awake (02:05)
03. Light Versus Darkness (00:48)
04. Jim Jeannie (03:30)
05. Transformation Day (03:45)
06. Victory (01:10)
07. Silver Dreams Golden Smiles (04:09)
08. Cry Of The Wilderness (03:11)
09. Guru's Song (03:06)
10. Oneness (06:22)
11. Life Is Just A Passing Parade (05:15)
12. Golden Dawn (02:17)
13. Free As The Morning Sun (03:16)
14. I Am Free (01:27)
15. Song For Devadip (05:04)

Exact Audio Copy V1.0 beta 3 from 29. August 2011

EAC extraction logfile from 18. May 2016, 19:06

Carlos Santana / Oneness: Silver Dreams - Golden Reality

Used drive : HL-DT-STDVDRAM GE24NU40 Adapter: 0 ID: 0

Read mode : Secure
Utilize accurate stream : Yes
Defeat audio cache : Yes
Make use of C2 pointers : No

Read offset correction : 6
Overread into Lead-In and Lead-Out : No
Fill up missing offset samples with silence : Yes
Delete leading and trailing silent blocks : No
Null samples used in CRC calculations : Yes
Used interface : Native Win32 interface for Win NT & 2000
Gap handling : Not detected, thus appended to previous track

Used output format : Internal WAV Routines
Sample format : 44.100 Hz; 16 Bit; Stereo


TOC of the extracted CD

Track | Start | Length | Start sector | End sector
––––––––––––––––––––––––––––-
1 | 0:00.00 | 0:35.37 | 0 | 2661
2 | 0:35.37 | 2:05.30 | 2662 | 12066
3 | 2:40.67 | 0:48.03 | 12067 | 15669
4 | 3:28.70 | 3:30.07 | 15670 | 31426
5 | 6:59.02 | 3:44.55 | 31427 | 48281
6 | 10:43.57 | 1:10.25 | 48282 | 53556
7 | 11:54.07 | 4:09.03 | 53557 | 72234
8 | 16:03.10 | 3:10.57 | 72235 | 86541
9 | 19:13.67 | 3:06.35 | 86542 | 100526
10 | 22:20.27 | 6:21.43 | 100527 | 129144
11 | 28:41.70 | 5:14.62 | 129145 | 152756
12 | 33:56.57 | 2:17.03 | 152757 | 163034
13 | 36:13.60 | 3:16.00 | 163035 | 177734
14 | 39:29.60 | 1:27.22 | 177735 | 184281
15 | 40:57.07 | 5:03.40 | 184282 | 207046


Track 1

Filename C:\Users\Stan.Stan-PC\Music\[Lossless]\Santana - 2010 Original Album Classics 3\1979 [2010] Oneness Silver Dreams-Golden Reality\01 The Chosen Hour.wav

Peak level 52.5 %
Extraction speed 0.3 X
Track quality 99.6 %
Copy CRC F9DC31CD
Cannot be verified as accurate (confidence 37) [580BC9AB], AccurateRip returned [7248ACFB] (AR v2)
Copy OK

Track 2

Filename C:\Users\Stan.Stan-PC\Music\[Lossless]\Santana - 2010 Original Album Classics 3\1979 [2010] Oneness Silver Dreams-Golden Reality\02 Arise Awake.wav

Peak level 67.9 %
Extraction speed 0.9 X
Track quality 100.0 %
Copy CRC 27F65C06
Cannot be verified as accurate (confidence 37) [FFE24B1A], AccurateRip returned [EF402155] (AR v2)
Copy OK

Track 3

Filename C:\Users\Stan.Stan-PC\Music\[Lossless]\Santana - 2010 Original Album Classics 3\1979 [2010] Oneness Silver Dreams-Golden Reality\03 Light Versus Darkness.wav

Peak level 45.7 %
Extraction speed 0.6 X
Track quality 100.0 %
Copy CRC 15E25772
Cannot be verified as accurate (confidence 37) [FFD77E0C], AccurateRip returned [2AA78674] (AR v2)
Copy OK

Track 4

Filename C:\Users\Stan.Stan-PC\Music\[Lossless]\Santana - 2010 Original Album Classics 3\1979 [2010] Oneness Silver Dreams-Golden Reality\04 Jim Jeannie.wav

Peak level 67.1 %
Extraction speed 1.1 X
Track quality 100.0 %
Copy CRC AECABD9D
Cannot be verified as accurate (confidence 37) [DAE7DD62], AccurateRip returned [5D46665F] (AR v2)
Copy OK

Track 5

Filename C:\Users\Stan.Stan-PC\Music\[Lossless]\Santana - 2010 Original Album Classics 3\1979 [2010] Oneness Silver Dreams-Golden Reality\05 Transformation Day.wav

Peak level 76.1 %
Extraction speed 1.0 X
Track quality 99.9 %
Copy CRC EDAE7154
Cannot be verified as accurate (confidence 38) [FE504CAD], AccurateRip returned [4557DFA0] (AR v2)
Copy OK

Track 6

Filename C:\Users\Stan.Stan-PC\Music\[Lossless]\Santana - 2010 Original Album Classics 3\1979 [2010] Oneness Silver Dreams-Golden Reality\06 Victory.wav

Peak level 70.3 %
Extraction speed 0.9 X
Track quality 100.0 %
Copy CRC F85DABEE
Cannot be verified as accurate (confidence 38) [71435861], AccurateRip returned [8E35BDE5] (AR v2)
Copy OK

Track 7

Filename C:\Users\Stan.Stan-PC\Music\[Lossless]\Santana - 2010 Original Album Classics 3\1979 [2010] Oneness Silver Dreams-Golden Reality\07 Silver Dreams Golden Smiles.wav

Peak level 73.2 %
Extraction speed 1.3 X
Track quality 100.0 %
Copy CRC 42CB1EAC
Cannot be verified as accurate (confidence 38) [9C633DD5], AccurateRip returned [364AF42D] (AR v2)
Copy OK

Track 8

Filename C:\Users\Stan.Stan-PC\Music\[Lossless]\Santana - 2010 Original Album Classics 3\1979 [2010] Oneness Silver Dreams-Golden Reality\08 Cry of the Wilderness.wav

Peak level 100.0 %
Extraction speed 1.4 X
Track quality 100.0 %
Copy CRC F92ACAFD
Cannot be verified as accurate (confidence 37) [0DE51B7D], AccurateRip returned [EE198889] (AR v2)
Copy OK

Track 9

Filename C:\Users\Stan.Stan-PC\Music\[Lossless]\Santana - 2010 Original Album Classics 3\1979 [2010] Oneness Silver Dreams-Golden Reality\09 Guru's Song.wav

Peak level 75.5 %
Extraction speed 1.4 X
Track quality 100.0 %
Copy CRC C5B578A9
Cannot be verified as accurate (confidence 37) [F91B123B], AccurateRip returned [E9114D74] (AR v2)
Copy OK

Track 10

Filename C:\Users\Stan.Stan-PC\Music\[Lossless]\Santana - 2010 Original Album Classics 3\1979 [2010] Oneness Silver Dreams-Golden Reality\10 Oneness.wav

Peak level 100.0 %
Extraction speed 1.7 X
Track quality 100.0 %
Copy CRC FF4F10D1
Cannot be verified as accurate (confidence 37) [8A255F33], AccurateRip returned [84EE02CE] (AR v2)
Copy OK

Track 11

Filename C:\Users\Stan.Stan-PC\Music\[Lossless]\Santana - 2010 Original Album Classics 3\1979 [2010] Oneness Silver Dreams-Golden Reality\11 Life Is Just a Passing Parade.wav

Peak level 100.0 %
Extraction speed 1.8 X
Track quality 100.0 %
Copy CRC 5155A51E
Cannot be verified as accurate (confidence 37) [F907963B], AccurateRip returned [5FBEDA2D] (AR v2)
Copy OK

Track 12

Filename C:\Users\Stan.Stan-PC\Music\[Lossless]\Santana - 2010 Original Album Classics 3\1979 [2010] Oneness Silver Dreams-Golden Reality\12 Golden Dawn.wav

Peak level 68.5 %
Extraction speed 1.6 X
Track quality 100.0 %
Copy CRC 39E145A1
Cannot be verified as accurate (confidence 37) [DE770DD1], AccurateRip returned [442BBBDD] (AR v2)
Copy OK

Track 13

Filename C:\Users\Stan.Stan-PC\Music\[Lossless]\Santana - 2010 Original Album Classics 3\1979 [2010] Oneness Silver Dreams-Golden Reality\13 Free as the Morning Sun.wav

Peak level 99.3 %
Extraction speed 1.8 X
Track quality 100.0 %
Copy CRC 5CB3553A
Cannot be verified as accurate (confidence 38) [5E65F9AB], AccurateRip returned [E4ED60B3] (AR v2)
Copy OK

Track 14

Filename C:\Users\Stan.Stan-PC\Music\[Lossless]\Santana - 2010 Original Album Classics 3\1979 [2010] Oneness Silver Dreams-Golden Reality\14 I Am Free.wav

Peak level 62.7 %
Extraction speed 1.1 X
Track quality 99.8 %
Copy CRC BC97135A
Cannot be verified as accurate (confidence 38) [3557A661], AccurateRip returned [82D2D60A] (AR v2)
Copy OK

Track 15

Filename C:\Users\Stan.Stan-PC\Music\[Lossless]\Santana - 2010 Original Album Classics 3\1979 [2010] Oneness Silver Dreams-Golden Reality\15 Song for Devadip.wav

Peak level 100.0 %
Extraction speed 2.0 X
Track quality 100.0 %
Copy CRC 20BD7CD6
Cannot be verified as accurate (confidence 38) [5D262C8D], AccurateRip returned [B923E655] (AR v2)
Copy OK


No tracks could be verified as accurate
You may have a different pressing from the one(s) in the database

No errors occurred

End of status report

––––––––––––––––––––––––––––––––––––––––
Analyzed: Carlos Santana / Oneness: Silver Dreams - Golden Reality
––––––––––––––––––––––––––––––––––––––––

DR Peak RMS Duration Track
––––––––––––––––––––––––––––––––––––––––
DR16 -5.60 dB -27.59 dB 0:35 01-The Chosen Hour
DR11 -3.36 dB -17.28 dB 2:05 02-Arise Awake
DR9 -6.78 dB -21.24 dB 0:48 03-Light Versus Darkness
DR10 -3.45 dB -14.90 dB 3:30 04-Jim Jeannie
DR11 -2.37 dB -16.08 dB 3:45 05-Transformation Day
DR10 -3.06 dB -14.94 dB 1:10 06-Victory
DR11 -2.70 dB -19.14 dB 4:09 07-Silver Dreams Golden Smiles
DR10 0.00 dB -12.24 dB 3:11 08-Cry of the Wilderness
DR11 -2.44 dB -17.94 dB 3:06 09-Guru's Song
DR11 0.00 dB -14.83 dB 6:22 10-Oneness
DR10 0.00 dB -11.99 dB 5:15 11-Life Is Just a Passing Parade
DR13 -3.28 dB -22.50 dB 2:17 12-Golden Dawn
DR12 -0.06 dB -14.30 dB 3:16 13-Free as the Morning Sun
DR13 -4.05 dB -22.61 dB 1:27 14-I Am Free
DR10 0.00 dB -11.36 dB 5:04 15-Song for Devadip
––––––––––––––––––––––––––––––––––––––––

Number of tracks: 15
Official DR value: DR11

Samplerate: 44100 Hz
Channels: 2
Bits per sample: 16
Bitrate: 904 kbps
Codec: FLAC
================================================================================


Santana - 3 Original Album Classics [3CD Box Set] (2010)

CD3: Devadip Carlos Santana - The Swing Of Delight (1980)
Jazz, Rock, Blues-Rock, Latin | EAC Rip | FLAC, Tracks+CUE + LOG + Scans (JPEG) | 57:07 Min | 319,70 Mb
Label: Columbia/Legacy/Sony Music (EU) | Released: 2010-02-01 (1980, August)

For his second "solo" album, Carlos Santana used Miles Davis' famed '60s group Herbie Hancock, Wayne Shorter, Ron Carter, and Tony Williams plus members of the current Santana band, for a varied, jazz-oriented session that was one of his more pleasant excursions from the standard Santana sound. (Originally released as a double-LP, The Swing of Delight was reissued on a single CD.)
Review by William Ruhlmann


Tracklist:

01. Swapan Tari (06:48)
02. Love Theme From "Spartacus" (06:53)
03. Phuler Matan (05:55)
04. Song For My Brother (06:59)
05. Jharna Kala (07:14)
06. Gardenia (07:10)
07. La Llave (03:42)
08. Golden Hours (06:40)
09. Shere Khan, The Tiger (05:46)

Exact Audio Copy V1.0 beta 3 from 29. August 2011

EAC extraction logfile from 18. May 2016, 17:54

Devadip Carlos Santana / The Swing Of Delight

Used drive : HL-DT-STDVDRAM GE24NU40 Adapter: 0 ID: 0

Read mode : Secure
Utilize accurate stream : Yes
Defeat audio cache : Yes
Make use of C2 pointers : No

Read offset correction : 6
Overread into Lead-In and Lead-Out : No
Fill up missing offset samples with silence : Yes
Delete leading and trailing silent blocks : No
Null samples used in CRC calculations : Yes
Used interface : Native Win32 interface for Win NT & 2000
Gap handling : Not detected, thus appended to previous track

Used output format : Internal WAV Routines
Sample format : 44.100 Hz; 16 Bit; Stereo


TOC of the extracted CD

Track | Start | Length | Start sector | End sector
––––––––––––––––––––––––––––-
1 | 0:00.00 | 6:47.67 | 0 | 30591
2 | 6:47.67 | 6:52.65 | 30592 | 61556
3 | 13:40.57 | 5:55.28 | 61557 | 88209
4 | 19:36.10 | 6:58.47 | 88210 | 119606
5 | 26:34.57 | 7:13.38 | 119607 | 152119
6 | 33:48.20 | 7:10.32 | 152120 | 184401
7 | 40:58.52 | 3:42.25 | 184402 | 201076
8 | 44:41.02 | 6:39.38 | 201077 | 231039
9 | 51:20.40 | 5:46.37 | 231040 | 257026


Track 1

Filename C:\Users\Stan.Stan-PC\Music\[Lossless]\Santana - 2010 Original Album Classics 3\1980 [2010] The Swing Of Delight\01 Swapan Tari.wav

Peak level 100.0 %
Extraction speed 1.1 X
Track quality 100.0 %
Copy CRC 1421CC7C
Cannot be verified as accurate (confidence 18) [A76D97E9], AccurateRip returned [7FCB2676] (AR v2)
Copy OK

Track 2

Filename C:\Users\Stan.Stan-PC\Music\[Lossless]\Santana - 2010 Original Album Classics 3\1980 [2010] The Swing Of Delight\02 Love Theme From ''Spartacus''.wav

Peak level 99.9 %
Extraction speed 1.3 X
Track quality 100.0 %
Copy CRC F65F2BE5
Cannot be verified as accurate (confidence 18) [EBEF3C9C], AccurateRip returned [9B595ED0] (AR v2)
Copy OK

Track 3

Filename C:\Users\Stan.Stan-PC\Music\[Lossless]\Santana - 2010 Original Album Classics 3\1980 [2010] The Swing Of Delight\03 Phuler Matan.wav

Peak level 99.8 %
Extraction speed 1.5 X
Track quality 100.0 %
Copy CRC 26FBCF4F
Cannot be verified as accurate (confidence 18) [70DCFE98], AccurateRip returned [D9DFD429] (AR v2)
Copy OK

Track 4

Filename C:\Users\Stan.Stan-PC\Music\[Lossless]\Santana - 2010 Original Album Classics 3\1980 [2010] The Swing Of Delight\04 Song For My Brother.wav

Peak level 99.8 %
Extraction speed 1.5 X
Track quality 99.9 %
Copy CRC 731C6A03
Cannot be verified as accurate (confidence 18) [1F1DC42F], AccurateRip returned [7C137FD4] (AR v2)
Copy OK

Track 5

Filename C:\Users\Stan.Stan-PC\Music\[Lossless]\Santana - 2010 Original Album Classics 3\1980 [2010] The Swing Of Delight\05 Jharna Kala.wav

Peak level 100.0 %
Extraction speed 1.8 X
Track quality 100.0 %
Copy CRC 2087CE22
Cannot be verified as accurate (confidence 18) [357B2310], AccurateRip returned [3379A16B] (AR v2)
Copy OK

Track 6

Filename C:\Users\Stan.Stan-PC\Music\[Lossless]\Santana - 2010 Original Album Classics 3\1980 [2010] The Swing Of Delight\06 Gardenia.wav

Peak level 99.9 %
Extraction speed 1.9 X
Track quality 100.0 %
Copy CRC B0F0BEE4
Cannot be verified as accurate (confidence 18) [BBCB8F9C], AccurateRip returned [AC635943] (AR v2)
Copy OK

Track 7

Filename C:\Users\Stan.Stan-PC\Music\[Lossless]\Santana - 2010 Original Album Classics 3\1980 [2010] The Swing Of Delight\07 La Llave.wav

Peak level 91.4 %
Extraction speed 1.9 X
Track quality 100.0 %
Copy CRC D417CD00
Cannot be verified as accurate (confidence 18) [A044707E], AccurateRip returned [567B358C] (AR v2)
Copy OK

Track 8

Filename C:\Users\Stan.Stan-PC\Music\[Lossless]\Santana - 2010 Original Album Classics 3\1980 [2010] The Swing Of Delight\08 Golden Hours.wav

Peak level 100.0 %
Extraction speed 2.1 X
Track quality 100.0 %
Copy CRC EDE553DE
Cannot be verified as accurate (confidence 17) [082098DC], AccurateRip returned [126A8810] (AR v2)
Copy OK

Track 9

Filename C:\Users\Stan.Stan-PC\Music\[Lossless]\Santana - 2010 Original Album Classics 3\1980 [2010] The Swing Of Delight\09 Shere Khan, The Tiger.wav

Peak level 70.2 %
Extraction speed 2.2 X
Track quality 100.0 %
Copy CRC ED4B6373
Cannot be verified as accurate (confidence 18) [3DBBC482], AccurateRip returned [692A6058] (AR v2)
Copy OK


No tracks could be verified as accurate
You may have a different pressing from the one(s) in the database

No errors occurred

End of status report

––––––––––––––––––––––––––––––––––––––––
Analyzed: Santana / The Swing Of Delight
––––––––––––––––––––––––––––––––––––––––

DR Peak RMS Duration Track
––––––––––––––––––––––––––––––––––––––––
DR17 0.00 dB -18.76 dB 6:48 01-Swapan Tari
DR20 0.00 dB -23.95 dB 6:53 02-Love Theme From ''Spartacus''
DR17 -0.02 dB -21.95 dB 5:55 03-Phuler Matan
DR18 -0.01 dB -21.56 dB 6:59 04-Song For My Brother
DR18 0.00 dB -19.96 dB 7:14 05-Jharna Kala
DR19 -0.01 dB -22.02 dB 7:10 06-Gardenia
DR20 -0.78 dB -23.51 dB 3:42 07-La Llave
DR18 0.00 dB -21.01 dB 6:40 08-Golden Hours
DR15 -3.07 dB -24.60 dB 5:46 09-Shere Khan, The Tiger
––––––––––––––––––––––––––––––––––––––––

Number of tracks: 9
Official DR value: DR18

Samplerate: 44100 Hz
Channels: 2
Bits per sample: 16
Bitrate: 672 kbps
Codec: FLAC
================================================================================

All thanks to original releaser

password: BlondStyle