Tags
Language
Tags

Santana - Abraxas (1970) [MFSL, 2015]

Posted By: gribovar
Santana - Abraxas (1970) [MFSL, 2015]

Santana - Abraxas (1970) [MFSL, 2015]
EAC Rip | FLAC (tracks+.cue+log) - 219 MB | MP3 CBR 320 kbps (LAME 3.93) - 88 MB | Covers - 21 MB
Genre: Jazz Rock, Latin Rock, Blues Rock | RAR 3% Rec. | Label: Mobile Fidelity Sound Lab (UDSACD 2152)

The San Francisco Bay Area rock scene of the late '60s was one that encouraged radical experimentation and discouraged the type of mindless conformity that's often plagued corporate rock. When one considers just how different Santana, Jefferson Airplane, Moby Grape, and the Grateful Dead sounded, it becomes obvious just how much it was encouraged. In the mid-'90s, an album as eclectic as Abraxas would be considered a marketing exec's worst nightmare. But at the dawn of the 1970s, this unorthodox mix of rock, jazz, salsa, and blues proved quite successful. Whether adding rock elements to salsa king Tito Puente's "Oye Como Va," embracing instrumental jazz-rock on "Incident at Neshabur" and "Samba Pa Ti," or tackling moody blues-rock on Fleetwood Mac's "Black Magic Woman," the band keeps things unpredictable yet cohesive. Many of the Santana albums that came out in the '70s are worth acquiring, but for novices, Abraxas is an excellent place to start.

Tracklist:
01. Singing Winds, Crying Beasts
02. Black Magic Woman/Gypsy Queen
03. Oye Como Va
04. Incident at Neshabur
05. Se a Cabo
06. Mother's Daughter
07. Samba Pa Ti
08. Hope You're Feeling Better
09. El Nicoya

Total time: 37:30

Exact Audio Copy V1.3 from 2. September 2016

EAC extraction logfile from 12. July 2017, 23:59

Santana / Abraxas (2016 MFSL)

Used drive : PLEXTOR CD-R PREMIUM Adapter: 1 ID: 1

Read mode : Secure
Utilize accurate stream : Yes
Defeat audio cache : Yes
Make use of C2 pointers : No

Read offset correction : 30
Overread into Lead-In and Lead-Out : No
Fill up missing offset samples with silence : Yes
Delete leading and trailing silent blocks : No
Null samples used in CRC calculations : Yes
Used interface : Native Win32 interface for Win NT & 2000
Gap handling : Appended to previous track

Used output format : User Defined Encoder
Selected bitrate : 768 kBit/s
Quality : High
Add ID3 tag : No
Command line compressor : C:\Program Files (x86)\Exact Audio Copy\FLAC\FLAC.EXE
Additional command line options : -6 -e -p -V -T "ARTIST=%artist%" -T "TITLE=%title%" -T "ALBUM=%albumtitle%" -T "DATE=%year%" -T "TRACKNUMBER=%tracknr%" -T "GENRE=%genre%" -T "PERFORMER=%albuminterpret%" -T "COMPOSER=%composer%" %haslyrics%–tag-from-file=LYRICS="%lyricsfile%"%haslyrics% -T "ALBUMARTIST=%albumartist%" -T "DISCNUMBER=%cdnumber%" -T "TOTALDISCS=%totalcds%" -T "TOTALTRACKS=%numtracks%" -T "COMMENT=%comment%" %source% -o %dest%


TOC of the extracted CD

Track | Start | Length | Start sector | End sector
––––––––––––––––––––––––––––-
1 | 0:00.00 | 4:49.60 | 0 | 21734
2 | 4:49.60 | 5:20.04 | 21735 | 45738
3 | 10:09.64 | 4:19.56 | 45739 | 65219
4 | 14:29.45 | 5:01.09 | 65220 | 87803
5 | 19:30.54 | 2:51.74 | 87804 | 100702
6 | 22:22.53 | 4:28.12 | 100703 | 120814
7 | 26:50.65 | 4:47.52 | 120815 | 142391
8 | 31:38.42 | 4:18.48 | 142392 | 161789
9 | 35:57.15 | 1:32.68 | 161790 | 168757


Track 1

Filename C:\tmp\00_RIPS\01 - Singing Winds, Crying Beasts.wav

Pre-gap length 0:00:02.00

Peak level 73.1 %
Extraction speed 8.0 X
Track quality 99.9 %
Test CRC 1A9C2B66
Copy CRC 1A9C2B66
Accurately ripped (confidence 16) [9FF89594] (AR v2)
Copy OK

Track 2

Filename C:\tmp\00_RIPS\02 - Black Magic Woman-Gypsy Queen.wav

Peak level 95.4 %
Extraction speed 8.8 X
Track quality 99.9 %
Test CRC AD8C9D09
Copy CRC AD8C9D09
Accurately ripped (confidence 16) [7B673A82] (AR v2)
Copy OK

Track 3

Filename C:\tmp\00_RIPS\03 - Oye Como Va.wav

Pre-gap length 0:00:00.09

Peak level 91.4 %
Extraction speed 10.7 X
Track quality 100.0 %
Test CRC 4784F283
Copy CRC 4784F283
Accurately ripped (confidence 16) [FC7A30FA] (AR v2)
Copy OK

Track 4

Filename C:\tmp\00_RIPS\04 - Incident At Neshabur.wav

Pre-gap length 0:00:04.84

Peak level 76.7 %
Extraction speed 10.2 X
Track quality 99.9 %
Test CRC FA399F65
Copy CRC FA399F65
Accurately ripped (confidence 16) [2725602F] (AR v2)
Copy OK

Track 5

Filename C:\tmp\00_RIPS\05 - Se A Cabo.wav

Pre-gap length 0:00:04.52

Peak level 83.9 %
Extraction speed 9.4 X
Track quality 99.9 %
Test CRC 6841DC8A
Copy CRC 6841DC8A
Accurately ripped (confidence 16) [F4792EBD] (AR v2)
Copy OK

Track 6

Filename C:\tmp\00_RIPS\06 - Mother's Daughter.wav

Pre-gap length 0:00:04.45

Peak level 77.0 %
Extraction speed 12.7 X
Track quality 100.0 %
Test CRC A0C72455
Copy CRC A0C72455
Accurately ripped (confidence 16) [FA56AB11] (AR v2)
Copy OK

Track 7

Filename C:\tmp\00_RIPS\07 - Samba Pa Ti.wav

Pre-gap length 0:00:07.89

Peak level 66.9 %
Extraction speed 13.4 X
Track quality 100.0 %
Test CRC 20B58D5D
Copy CRC 20B58D5D
Accurately ripped (confidence 16) [E3CD0557] (AR v2)
Copy OK

Track 8

Filename C:\tmp\00_RIPS\08 - Hope You're Feeling Better.wav

Pre-gap length 0:00:03.37

Peak level 74.0 %
Extraction speed 11.6 X
Track quality 99.9 %
Test CRC 0CA19060
Copy CRC 0CA19060
Accurately ripped (confidence 16) [24172BEE] (AR v2)
Copy OK

Track 9

Filename C:\tmp\00_RIPS\09 - El Nicoya.wav

Pre-gap length 0:00:09.21

Peak level 72.5 %
Extraction speed 9.4 X
Track quality 100.0 %
Test CRC 7D9CDECE
Copy CRC 7D9CDECE
Accurately ripped (confidence 16) [D2F4CD52] (AR v2)
Copy OK


All tracks accurately ripped

No errors occurred

End of status report

–– CUETools DB Plugin V2.1.6

[CTDB TOCID: ZSFIgz_eg.toU00n1eusRtFBzyI-] found
Submit result: ZSFIgz_eg.toU00n1eusRtFBzyI- has been confirmed
Track | CTDB Status
1 | (26/26) Accurately ripped
2 | (25/26) Accurately ripped
3 | (26/26) Accurately ripped
4 | (25/26) Accurately ripped
5 | (26/26) Accurately ripped
6 | (26/26) Accurately ripped
7 | (25/26) Accurately ripped
8 | (25/26) Accurately ripped
9 | (25/26) Accurately ripped


==== Log checksum 62DFA3E9FC5CA67B4D83FD0DC058A6991F0DBE294FD6AFFD8F097D7E3AEAB2DC ====

[CUETools log; Date: 20.07.2017 13:05:48; Version: 2.1.5]
[CTDB TOCID: ZSFIgz_eg.toU00n1eusRtFBzyI-] found.
Track | CTDB Status
1 | (27/27) Accurately ripped
2 | (26/27) Accurately ripped
3 | (27/27) Accurately ripped
4 | (26/27) Accurately ripped
5 | (27/27) Accurately ripped
6 | (27/27) Accurately ripped
7 | (26/27) Accurately ripped
8 | (26/27) Accurately ripped
9 | (26/27) Accurately ripped
[AccurateRip ID: 000df60c-0064e959-6208ca09] found.
Track [ CRC | V2 ] Status
01 [4808d359|9ff89594] (00+18/18) Accurately ripped
02 [51b640e4|7b673a82] (00+18/18) Accurately ripped
03 [5b29fc25|fc7a30fa] (00+18/18) Accurately ripped
04 [88702af5|2725602f] (00+18/18) Accurately ripped
05 [2751096d|f4792ebd] (00+18/18) Accurately ripped
06 [55b4fa25|fa56ab11] (00+18/18) Accurately ripped
07 [0f25d587|e3cd0557] (00+18/18) Accurately ripped
08 [90340a0e|24172bee] (00+18/18) Accurately ripped
09 [b1f9e6f0|d2f4cd52] (00+18/18) Accurately ripped

Track Peak [ CRC32 ] [W/O NULL] [ LOG ]
– 95,4 [34B4172D] [BED448BC]
01 73,1 [1A9C2B66] [01B6F1F0] CRC32
02 95,4 [AD8C9D09] [D9799B02] CRC32
03 91,4 [4784F283] [BBE9DBD6] CRC32
04 76,7 [FA399F65] [FD26B14E] CRC32
05 83,9 [6841DC8A] [8963B7C0] CRC32
06 77,0 [A0C72455] [1A5F8712] CRC32
07 66,9 [20B58D5D] [F11DEFFE] CRC32
08 74,0 [0CA19060] [DD53EDE3] CRC32
09 72,5 [7D9CDECE] [FB088EF3] CRC32

Thanks to mclarenspy

See also:
Santana - 2 Studio Almums (1969-1972) [MFSL, 2007-2011]
Carlos Santana & Mahavishn... Surrender (1973) [MFSL, 2011]
Santana - Borboletta (1974) [Japanese Edition 1993]
Santana - Black Magic Woman: The Best Of Santana (1999)
Santana - Santana IV (2016)