Tags
Language
Tags

Santana - Amigos (1976) (Repost)

Posted By: gribovar
Santana - Amigos (1976) (Repost)

Santana - Amigos (1976)
EAC Rip | FLAC (image+.cue+log) - 277 MB | MP3 CBR 320 kbps (LAME 3.93) - 97 MB | Covers - 29 MB
Genre: Latin Rock, Blues Rock, R&B, Funk | RAR 3% Rec. | Label: CBS/Columbia (CK 33576)

By the release of Amigos, the Santana band's seventh album, only Carlos Santana and David Brown remained from the band that conquered Woodstock, and only Carlos had been in the band continuously since. Meanwhile, the group had made some effort to arrest its commercial slide, hiring an outside producer, David Rubinson, and taking a tighter, more up-tempo, and more vocal approach to its music. The overt jazz influences were replaced by strains of R&B/funk and Mexican folk music. The result was an album more dynamic than any since Santana III in 1971. "Let It Shine" (number 77), an R&B-tinged tune, became the group's first chart single in four years, and the album returned Santana to Top Ten status.

Tracklist:
01. Dance Sister Dance (Baila Mi Hermana)
02. Take Me With You
03. Let Me
04. Gitano
05. Tell Me Are You Tired
06. Europa (Earth's Cry Heaven's Smile)
07. Let It Shine

Total time: 41:17

Exact Audio Copy V1.0 beta 3 from 29. August 2011

Отчёт EAC об извлечении, выполненном 26. марта 2013, 21:37

Santana / Amigos

Дисковод: SONY CD-RW CRX230ED Adapter: 0 ID: 1

Режим чтения : Достоверность
Использование точного потока : Да
Отключение кэша аудио : Да
Использование указателей C2 : Нет

Коррекция смещения при чтении : 6
Способность читать области Lead-in и Lead-out : Нет
Заполнение пропущенных сэмплов тишиной : Да
Удаление блоков с тишиной в начале и конце : Нет
При вычислениях CRC использовались нулевые сэмплы : Да
Интерфейс : Установленный внешний ASPI-интерфейс

Выходной формат : Внутренние WAV-операции
Формат сэмплов : 44.100 Гц; 16 бит; стерео


TOC извлечённого CD

Трек | Старт | Длительность | Начальный сектор | Конечный сектор
––––––––––––––––––––––––––––––––––-
1 | 0:00.00 | 8:15.15 | 0 | 37139
2 | 8:15.15 | 5:26.67 | 37140 | 61656
3 | 13:42.07 | 4:50.68 | 61657 | 83474
4 | 18:33.00 | 6:13.10 | 83475 | 111459
5 | 24:46.10 | 5:42.02 | 111460 | 137111
6 | 30:28.12 | 5:06.08 | 137112 | 160069
7 | 35:34.20 | 5:42.70 | 160070 | 185789


Характеристики диапазона извлечения и сообщения об ошибках

Выбранный диапазон

Имя файла E:\MusicCD\Torrent\Santana\Santana - Amigos\Santana - Amigos.wav

Пиковый уровень 100.0 %
Скорость извлечения 6.2 X
Качество диапазона 100.0 %
CRC теста 560C4E6B
CRC копии 560C4E6B
Копирование… OK

Ошибок не произошло


AccurateRip: сводка

Трек 1 : извлечено точно (доверие 2) [429A9B6E] (AR v1)
Трек 2 : извлечено точно (доверие 2) [1C07C152] (AR v1)
Трек 3 : извлечено точно (доверие 2) [7E847DAC] (AR v1)
Трек 4 : извлечено точно (доверие 2) [D0AB4A7E] (AR v1)
Трек 5 : извлечено точно (доверие 2) [CEBAB74B] (AR v1)
Трек 6 : извлечено точно (доверие 2) [01625ACB] (AR v1)
Трек 7 : извлечено точно (доверие 2) [BDA1CD4F] (AR v1)

Все треки извлечены точно

Конец отчёта

==== Контрольная сумма отчёта C1000EE490B770CA7AC3608E4075317973E9C74FB9CA55D4A05FE40D85E27A01 ====

[CUETools log; Date: 09.04.2020 17:25:42; Version: 2.1.4]
[CTDB TOCID: nvDWxFnpaFIT2SnO._COI1XaJC8-] found.
Track | CTDB Status
1 | (93/95) Accurately ripped
2 | (92/95) Accurately ripped
3 | (94/95) Accurately ripped
4 | (94/95) Accurately ripped
5 | (94/95) Accurately ripped
6 | (94/95) Accurately ripped
7 | (93/95) Accurately ripped
[AccurateRip ID: 000bda00-0045e25e-5909ad07] found.
Track [ CRC | V2 ] Status
01 [429a9b6e|df544038] (02+06/56) Accurately ripped
02 [1c07c152|becda9cf] (02+06/56) Accurately ripped
03 [7e847dac|42358891] (02+06/56) Accurately ripped
04 [d0ab4a7e|c1243c62] (02+06/56) Accurately ripped
05 [cebab74b|254c8ac3] (02+06/55) Accurately ripped
06 [01625acb|b3cc7c28] (02+06/56) Accurately ripped
07 [bda1cd4f|751e1a35] (02+06/56) Accurately ripped
Offsetted by -664:
01 [00fc904e] (02/56) Accurately ripped
02 [57637fb2] (02/56) Accurately ripped
03 [aeeb0284] (02/56) Accurately ripped
04 [2de6dc9e] (02/56) Accurately ripped
05 [bf38bb03] (02/55) Accurately ripped
06 [433760a3] (02/56) Accurately ripped
07 [587231d7] (02/56) Accurately ripped
Offsetted by -60:
01 [3b21ea9e] (06/56) Accurately ripped
02 [08b82442] (06/56) Accurately ripped
03 [6721cd88] (06/56) Accurately ripped
04 [2ad424ce] (06/56) Accurately ripped
05 [f8823f57] (06/55) Accurately ripped
06 [02b4d527] (06/56) Accurately ripped
07 [e44bc3e3] (06/56) Accurately ripped
Offsetted by 111:
01 [f6d37c22] (03/56) Accurately ripped
02 [a627d716] (03/56) Accurately ripped
03 [dcfb1055] (03/56) Accurately ripped
04 [b6ac836a] (03/56) Accurately ripped
05 [4e3cc868] (03/55) Accurately ripped
06 [32235ed4] (03/56) Accurately ripped
07 [4fb42b8a] (03/56) Accurately ripped
Offsetted by -949:
01 [1d7f4872] (00/56) No match (V2 was not tested)
02 [fba955a6] (00/56) No match (V2 was not tested)
03 [3fd63dd9] (00/56) No match (V2 was not tested)
04 [9a28e99a] (00/56) No match (V2 was not tested)
05 [85ac813c] (00/55) No match (V2 was not tested)
06 [497f25d8] (00/56) No match (V2 was not tested)
07 [50198516] (00/56) No match (V2 was not tested)
Offsetted by -499:
01 [d588768a] (00/56) No match (V2 was not tested)
02 [8c7e6f9e] (00/56) No match (V2 was not tested)
03 [ef3a66e7] (00/56) No match (V2 was not tested)
04 [75f68442] (00/56) No match (V2 was not tested)
05 [4c5404e2] (00/55) No match (V2 was not tested)
06 [3f949026] (00/56) No match (V2 was not tested)
07 [ae1ecbc0] (00/56) No match (V2 was not tested)

Track Peak [ CRC32 ] [W/O NULL] [ LOG ]
– 100,0 [560C4E6B] [1D79F4E0] CRC32
01 100,0 [B19CE07B] [203835A7]
02 100,0 [4A4A01EA] [95019FD8]
03 97,6 [E41B1CEC] [EBB19F12]
04 100,0 [BD210DFB] [A43ADEED]
05 97,9 [09A7CB82] [382031A1]
06 100,0 [B83AEF22] [F274BD3D]
07 100,0 [686CF35F] [F2290A39]

Thanks to squirr

See also: