Tags
Language
Tags

Santana - Black Magic Woman: The Best Of Santana (1999)

Posted By: gribovar
Santana - Black Magic Woman: The Best Of Santana (1999)

Santana - Black Magic Woman: The Best Of Santana (1999)
EAC Rip | WavPack (image+.cue+log) - 533 MB | MP3 CBR 320 kbps (LAME 3.93) - 184 MB | Covers - 52 MB
Genre: Classic Rock, Jazz Rock, Blues Rock, Latin Rock | RAR 3% Rec. | Label: Columbia (494678 2)

Given the sheer size of his catalog and the preponderance of Santana best-of compilations out there, trying to pick a single-disc collection can be a quest. This one, issued by Sony, assembles 17 cuts from the band's long run with Columbia, and does a very decent, if not perfect, job of capturing the essence of the band by collecting little more than just the hit singles. In accomplishing that, it does leave out some seminal cuts – there isn't even an edited version of "Soul Sacrifice here, nor are "Samba Pa Ti" from Abraxas and "Song of the Wind" from Caravanserai present. That said, virtually everything here is very solid.

Tracklist:
01. Black Magic Woman
02. Evil Ways
03. Jingo
04. Hannibal
05. Full Moon
06. Everything's Coming Our Way
07. Europa
08. Brightest Star
09. Flor D'Luna (Moonflower)
10. Guajira
11. Hold On
12. I'll Be Waiting
13. I Love You Much Too Much
14. Winning
15. Mirage
16. No One To Depend On
17. Oye Como Va

Total time: 01:18:09

Exact Audio Copy V0.99 prebeta 5 from 4. May 2009

EAC extraction logfile from 19. June 2010, 21:58

Carlos Santana / The Best Of

Used drive : TSSTcorpCD/DVDW SH-S182M Adapter: 0 ID: 0

Read mode : Secure
Utilize accurate stream : Yes
Defeat audio cache : Yes
Make use of C2 pointers : No

Read offset correction : 6
Overread into Lead-In and Lead-Out : No
Fill up missing offset samples with silence : Yes
Delete leading and trailing silent blocks : No
Null samples used in CRC calculations : Yes
Used interface : Installed external ASPI interface

Used output format : Internal WAV Routines
Sample format : 44.100 Hz; 16 Bit; Stereo


TOC of the extracted CD

Track | Start | Length | Start sector | End sector
––––––––––––––––––––––––––––-
1 | 0:00.00 | 5:19.27 | 0 | 23951
2 | 5:19.27 | 3:51.00 | 23952 | 41276
3 | 9:10.27 | 4:14.70 | 41277 | 60396
4 | 13:25.22 | 4:18.13 | 60397 | 79759
5 | 17:43.35 | 4:30.50 | 79760 | 100059
6 | 22:14.10 | 3:15.22 | 100060 | 114706
7 | 25:29.32 | 4:57.15 | 114707 | 136996
8 | 30:26.47 | 4:51.03 | 136997 | 158824
9 | 35:17.50 | 4:52.45 | 158825 | 180769
10 | 40:10.20 | 5:43.72 | 180770 | 206566
11 | 45:54.17 | 4:25.40 | 206567 | 226481
12 | 50:19.57 | 5:11.30 | 226482 | 249836
13 | 55:31.12 | 4:39.10 | 249837 | 270771
14 | 60:10.22 | 3:28.60 | 270772 | 286431
15 | 63:39.07 | 4:40.15 | 286432 | 307446
16 | 68:19.22 | 5:30.15 | 307447 | 332211
17 | 73:49.37 | 4:19.43 | 332212 | 351679


Range status and errors

Selected range

Filename G:\Carlos Santana - The Best Of.wav

Peak level 100.0 %
Range quality 99.9 %
Test CRC CD8F2A63
Copy CRC CD8F2A63
Copy OK

No errors occurred


AccurateRip summary

Track 1 cannot be verified as accurate (confidence 25) [3782A55C], AccurateRip returned [C1524860]
Track 2 cannot be verified as accurate (confidence 25) [AB661660], AccurateRip returned [85687DB5]
Track 3 cannot be verified as accurate (confidence 25) [3864E3AF], AccurateRip returned [BB5153BE]
Track 4 cannot be verified as accurate (confidence 24) [A3BED5E7], AccurateRip returned [9E975153]
Track 5 cannot be verified as accurate (confidence 25) [FADE31A7], AccurateRip returned [DC3D91DB]
Track 6 cannot be verified as accurate (confidence 25) [59D3227D], AccurateRip returned [7B64BBA9]
Track 7 cannot be verified as accurate (confidence 25) [B0581E8B], AccurateRip returned [500E493F]
Track 8 cannot be verified as accurate (confidence 25) [DB0A7DEB], AccurateRip returned [4D9C8BBB]
Track 9 cannot be verified as accurate (confidence 25) [3E960285], AccurateRip returned [24B444DD]
Track 10 cannot be verified as accurate (confidence 25) [EEF656D0], AccurateRip returned [BE121708]
Track 11 cannot be verified as accurate (confidence 25) [6A9B9461], AccurateRip returned [CD3B1F31]
Track 12 cannot be verified as accurate (confidence 25) [7F6E54B8], AccurateRip returned [6B87771C]
Track 13 cannot be verified as accurate (confidence 25) [FCC5A355], AccurateRip returned [460DAE01]
Track 14 cannot be verified as accurate (confidence 25) [20F7405C], AccurateRip returned [F65B5450]
Track 15 cannot be verified as accurate (confidence 25) [5223F1AC], AccurateRip returned [5930FAF8]
Track 16 cannot be verified as accurate (confidence 23) [C600F7E5], AccurateRip returned [1DA6128D]
Track 17 cannot be verified as accurate (confidence 23) [A3ACF035], AccurateRip returned [80D856B1]

No tracks could be verified as accurate
You may have a different pressing from the one(s) in the database

End of status report

[CUETools log; Date: 11.07.2019 23:28:54; Version: 2.1.4]
[CTDB TOCID: 6uQpNBRO2QYcQ_Vc3Eq3DYe9x_E-] found.
Track | CTDB Status
1 | (99/99) Accurately ripped
2 | (99/99) Accurately ripped
3 | (99/99) Accurately ripped
4 | (98/99) Accurately ripped
5 | (99/99) Accurately ripped
6 | (98/99) Accurately ripped
7 | (99/99) Accurately ripped
8 | (99/99) Accurately ripped
9 | (99/99) Accurately ripped
10 | (97/99) Accurately ripped
11 | (99/99) Accurately ripped
12 | (99/99) Accurately ripped
13 | (99/99) Accurately ripped
14 | (97/99) Accurately ripped
15 | (99/99) Accurately ripped
16 | (99/99) Accurately ripped
17 | (99/99) Accurately ripped
[AccurateRip ID: 002fbb6e-025eda60-c1125111] found.
Track [ CRC | V2 ] Status
01 [3782a55c|b2a54dce] (00+00/89) No match
02 [ab661660|e18b3e10] (00+00/88) No match
03 [3864e3af|b7ac5d1b] (00+00/88) No match
04 [a3bed5e7|aff0e9a7] (00+00/87) No match
05 [fade31a7|a2a93431] (00+00/88) No match
06 [59d3227d|8f8ec41e] (00+00/88) No match
07 [b0581e8b|4b25424c] (00+00/88) No match
08 [db0a7deb|fd2ee1a6] (00+00/88) No match
09 [3e960285|46f25553] (00+00/88) No match
10 [eef656d0|f8715bc9] (00+00/88) No match
11 [6a9b9461|337f0dad] (00+00/88) No match
12 [7f6e54b8|75f44744] (00+00/88) No match
13 [fcc5a355|3625f134] (00+00/88) No match
14 [20f7405c|18da4af0] (00+00/88) No match
15 [5223f1ac|29310bb6] (00+00/88) No match
16 [c600f7e5|115c09b6] (00+00/86) No match
17 [a3acf035|9ded697c] (00+00/85) No match
Offsetted by 36:
01 [c1524860] (35/89) Accurately ripped
02 [85687db5] (35/88) Accurately ripped
03 [bb5153be] (35/88) Accurately ripped
04 [9e975153] (34/87) Accurately ripped
05 [dc3d91db] (35/88) Accurately ripped
06 [7b64bba9] (35/88) Accurately ripped
07 [500e493f] (35/88) Accurately ripped
08 [4d9c8bbb] (35/88) Accurately ripped
09 [24b444dd] (35/88) Accurately ripped
10 [be121708] (35/88) Accurately ripped
11 [cd3b1f31] (35/88) Accurately ripped
12 [6b87771c] (35/88) Accurately ripped
13 [460dae01] (35/88) Accurately ripped
14 [f65b5450] (35/88) Accurately ripped
15 [5930faf8] (35/88) Accurately ripped
16 [1da6128d] (33/86) Accurately ripped
17 [80d856b1] (32/85) Accurately ripped

Track Peak [ CRC32 ] [W/O NULL] [ LOG ]
– 100,0 [CD8F2A63] [315A8701] CRC32
01 97,7 [3328F10C] [22C26815]
02 89,1 [7EA5F7D9] [E13D3578]
03 98,8 [F9E7EF8F] [711879D9]
04 89,1 [665B0255] [D2E48754]
05 100,0 [5B7FD3E4] [CCED6DD2]
06 89,1 [86EDF692] [27BCA86B]
07 89,1 [CCB71B93] [1AAD2E7D]
08 100,0 [BA60726E] [DB8AFFDE]
09 99,9 [93D1EA1E] [321E55EF]
10 99,9 [81F5C7EB] [928C6829]
11 99,9 [A7B33267] [764BFF75]
12 89,1 [B6B4DE1B] [87678261]
13 89,1 [12C27D61] [A40C7A8C]
14 99,9 [F01F30C3] [18167ABD]
15 99,9 [1F408012] [90B36B98]
16 99,9 [A19EFEF5] [BA1B739F]
17 100,0 [F50361BB] [D3BF6A60]

Thanks to edenika

See also:
Santana - 2 Studio Almums (1969-1972) [MFSL, 2007-2011]
Carlos Santana & Mahavishn... Surrender (1973) [MFSL, 2011]