Tags
Language
Tags

Santana - Blessings And Miracles (2021)

Posted By: gribovar
Santana - Blessings And Miracles (2021)

Santana - Blessings And Miracles (2021)
EAC Rip | FLAC (image+.cue+log) - 412 MB | MP3 CBR 320 kbps (LAME 3.93) - 134 MB | Covers - 74 MB
Genre: Blues Rock, Psychedelic Rock, Latin Rock | RAR 3% Rec. | Label: BMG (538714542)

On Blessings and Miracles, his twenty-sixth studio album, music legend and guitar master Carlos Santana delivers one of the most ambitious, inspired and flat-out magical records of his storied career. There’s thrilling feats of bravura musicianship that pair the guitar master with fellow icons like Chick Corea and Steve Winwood, knockout rockers with Metallica’s Kirk Hammett and Living Colour’s Corey Glover, and genre-bending, hook-filled celebrations featuring Rob Thomas, Chris Stapleton, G-Eazy, American Authors and Ally Brooke, among others. The record also features bravura performances from members of Santana’s touring band (including drummer Cindy Blackman Santana and singer Tommy Anthony), as well as impeccable vocals and keyboards by the guitarist’s son, Salvador Santana, and stunning lead vocals by daughter, Stella Santana.

Tracklist:
01. Ghost of Future Pull/New Light
02. Santana Celebration
03. Rumbalero
04. Joy
05. Move
06. Whiter Shade Of Pale (Feat. Steve Winwood)
07. Break (Feat. Ally Brooke)
08. She's Fire
09. Peace Power (Feat. Corey Glover)
10. America For Sale (Feat. Kirk Hammett & Marc Osegueda)
11. Breathing Underwater
12. Mother Yes
13. Song For Cindy
14. Angel Choir/All Together (Feat. Chick Corea & Gayle Moran Corea)
15. Ghost Of Future Pull II

Total time: 56:51

Exact Audio Copy V1.1 from 23. June 2015

EAC extraction logfile from 18. October 2021, 1:13

Santana / Blessings and Miracles

Used drive : MATSHITADVD+-RW SW830 Adapter: 1 ID: 0

Read mode : Secure
Utilize accurate stream : Yes
Defeat audio cache : Yes
Make use of C2 pointers : No

Read offset correction : 6
Overread into Lead-In and Lead-Out : No
Fill up missing offset samples with silence : Yes
Delete leading and trailing silent blocks : No
Null samples used in CRC calculations : Yes
Used interface : Native Win32 interface for Win NT & 2000

Used output format : User Defined Encoder
Selected bitrate : 768 kBit/s
Quality : High
Add ID3 tag : No
Command line compressor : C:\Program Files (x86)\Exact Audio Copy\FLAC\FLAC.EXE
Additional command line options : -6 -V -T "ARTIST=%artist%" -T "TITLE=%title%" -T "ALBUM=%albumtitle%" -T "DATE=%year%" -T "TRACKNUMBER=%tracknr%" -T "GENRE=%genre%" -T "COMMENT=%comment%" -T "BAND=%albuminterpret%" -T "ALBUMARTIST=%albuminterpret%" -T "COMPOSER=%composer%" %haslyrics%–tag-from-file=LYRICS="%lyricsfile%"%haslyrics% -T "DISCNUMBER=%cdnumber%" -T "TOTALDISCS=%totalcds%" -T "TOTALTRACKS=%numtracks%" %hascover%–picture="%coverfile%"%hascover% %source% -o %dest%


TOC of the extracted CD

Track | Start | Length | Start sector | End sector
––––––––––––––––––––––––––––-
1 | 0:00.00 | 1:24.49 | 0 | 6348
2 | 1:24.49 | 3:18.33 | 6349 | 21231
3 | 4:43.07 | 3:56.15 | 21232 | 38946
4 | 8:39.22 | 3:46.64 | 38947 | 55960
5 | 12:26.11 | 2:45.10 | 55961 | 68345
6 | 15:11.21 | 4:53.42 | 68346 | 90362
7 | 20:04.63 | 5:16.35 | 90363 | 114097
8 | 25:21.23 | 3:32.62 | 114098 | 130059
9 | 28:54.10 | 4:40.16 | 130060 | 151075
10 | 33:34.26 | 6:13.39 | 151076 | 179089
11 | 39:47.65 | 3:34.36 | 179090 | 195175
12 | 43:22.26 | 4:35.15 | 195176 | 215815
13 | 47:57.41 | 3:49.14 | 215816 | 233004
14 | 51:46.55 | 3:17.20 | 233005 | 247799
15 | 55:04.00 | 1:47.22 | 247800 | 255846


Range status and errors

Selected range

Filename C:\Users\Boris\Desktop\santa21\Santana - Blessings and Miracles.wav

Peak level 100.0 %
Extraction speed 3.0 X
Range quality 99.9 %
Test CRC BACF4720
Copy CRC BACF4720
Copy OK

No errors occurred


AccurateRip summary

Track 1 not present in database
Track 2 not present in database
Track 3 not present in database
Track 4 not present in database
Track 5 not present in database
Track 6 not present in database
Track 7 not present in database
Track 8 not present in database
Track 9 not present in database
Track 10 not present in database
Track 11 not present in database
Track 12 not present in database
Track 13 not present in database
Track 14 not present in database
Track 15 not present in database

None of the tracks are present in the AccurateRip database

End of status report

–– CUETools DB Plugin V2.1.6

[CTDB TOCID: sKtb0_FwqgGtdy43j7rQB0w7VRU-] found
Submit result: sKtb0_FwqgGtdy43j7rQB0w7VRU- has been confirmed
Track | CTDB Status
1 | (24/24) Accurately ripped
2 | (24/24) Accurately ripped
3 | (24/24) Accurately ripped
4 | (24/24) Accurately ripped
5 | (24/24) Accurately ripped
6 | (24/24) Accurately ripped
7 | (24/24) Accurately ripped
8 | (24/24) Accurately ripped
9 | (24/24) Accurately ripped
10 | (24/24) Accurately ripped
11 | (24/24) Accurately ripped
12 | (24/24) Accurately ripped
13 | (24/24) Accurately ripped
14 | (24/24) Accurately ripped
15 | (24/24) Accurately ripped


==== Log checksum 55001E2D5A4E7533C8E17413A45BEDB2DCC8C99C758AF5898ACE1959BC202995 ====

[CUETools log; Date: 22.10.2021 20:25:46; Version: 2.1.4]
[CTDB TOCID: sKtb0_FwqgGtdy43j7rQB0w7VRU-] found.
Track | CTDB Status
1 | (43/43) Accurately ripped
2 | (43/43) Accurately ripped
3 | (43/43) Accurately ripped
4 | (43/43) Accurately ripped
5 | (43/43) Accurately ripped
6 | (43/43) Accurately ripped
7 | (42/43) Accurately ripped
8 | (43/43) Accurately ripped
9 | (43/43) Accurately ripped
10 | (43/43) Accurately ripped
11 | (43/43) Accurately ripped
12 | (43/43) Accurately ripped
13 | (42/43) Accurately ripped
14 | (43/43) Accurately ripped
15 | (43/43) Accurately ripped
[AccurateRip ID: 001e90de-0164200d-c90d530f] disk not present in database.

Track Peak [ CRC32 ] [W/O NULL] [ LOG ]
– 100,0 [BACF4720] [EBB39AC0] CRC32
01 98,6 [84EA28F6] [0742F243]
02 100,0 [3D08F0C5] [2ED4A32B]
03 100,0 [21705487] [9CCB8AFB]
04 100,0 [FF2D8833] [FC730554]
05 100,0 [80C2F5FC] [8CA73D26]
06 100,0 [1752C05C] [F62FFDA5]
07 100,0 [FDC33C1F] [CB098A66]
08 100,0 [2A0CD41E] [D18B5661]
09 100,0 [8E458DF1] [9A426A47]
10 100,0 [27F7AF89] [94D25E4C]
11 100,0 [394219B7] [F7983601]
12 100,0 [0D21763E] [C243E565]
13 100,0 [26997FA9] [AACC47BB]
14 100,0 [F01ABC9F] [727478BE]
15 100,0 [49310301] [E0286B71]

Thanks to Boris1

See also: