Tags
Language
Tags

Santana - Marathon (1979) [Japanese Edition 2010] (Repost)

Posted By: gribovar
Santana - Marathon (1979) [Japanese Edition 2010] (Repost)

Santana - Marathon (1979) [Japanese Edition 2010]
EAC Rip | FLAC (image+.cue+log) - 290 MB | MP3 CBR 320 kbps (LAME 3.93) - 96 MB | Covers - 51 MB
Genre: R&B, Jazz Rock, AOR | RAR 3% Rec. | Label: Sony Music (SICP 2876)

Marathon marked the addition of keyboard player Alan Pasqua and singer Greg Walker's replacement by singer/guitarist Alex Ligertwood in the Santana lineup. Otherwise, the album was notable for consisting entirely of band-written material, although those songs were in the established R&B/rock style evolved on albums like Amigos, Festival, and Inner Secrets.

Tracklist:
01. Marathon
02. Lightning In The Sky
03. Aqua Marine
04. You Know That I Love You
05. All I Ever Wanted
06. Stand Up
07. Runnin
08. Summer Lady
09. Love
10. Stay (Beside Me)
11. Hard Times

Total time: 40:51

Exact Audio Copy V0.99 prebeta 5 from 4. May 2009

EAC extraction logfile from 7. May 2011, 16:12

Santana / Marathon (Japan Mini LP 2010)

Used drive : Optiarc DVD RW AD-5200S Adapter: 2 ID: 0

Read mode : Secure
Utilize accurate stream : Yes
Defeat audio cache : Yes
Make use of C2 pointers : No

Read offset correction : 48
Overread into Lead-In and Lead-Out : No
Fill up missing offset samples with silence : Yes
Delete leading and trailing silent blocks : No
Null samples used in CRC calculations : Yes
Used interface : Native Win32 interface for Win NT & 2000

Used output format : User Defined Encoder
Selected bitrate : 128 kBit/s
Quality : High
Add ID3 tag : No
Command line compressor : C:\Program Files\Exact Audio Copy\Flac\flac.exe
Additional command line options : -8 -V -T "ARTIST=%a" -T "TITLE=%t" -T "ALBUM=%g" -T "DATE=%y" -T "TRACKNUMBER=%n" -T "GENRE=%m" -T "COMMENT=EAC FLAC -8" %s


TOC of the extracted CD

Track | Start | Length | Start sector | End sector
––––––––––––––––––––––––––––-
1 | 0:00.00 | 1:27.69 | 0 | 6593
2 | 1:27.69 | 3:53.17 | 6594 | 24085
3 | 5:21.11 | 5:36.63 | 24086 | 49348
4 | 10:57.74 | 4:27.69 | 49349 | 69442
5 | 15:25.68 | 4:04.60 | 69443 | 87802
6 | 19:30.53 | 4:03.15 | 87803 | 106042
7 | 23:33.68 | 1:39.13 | 106043 | 113480
8 | 25:13.06 | 4:24.31 | 113481 | 133311
9 | 29:37.37 | 3:22.56 | 133312 | 148517
10 | 33:00.18 | 3:51.23 | 148518 | 165865
11 | 36:51.41 | 3:59.43 | 165866 | 183833


Range status and errors

Selected range

Filename D:\3322\Santana -1979 - Marathon (Japan Mini LP 2010)\Santana - Marathon (Japan Mini LP 2010).wav

Peak level 100.0 %
Range quality 100.0 %
Test CRC 2DB6E63B
Copy CRC 2DB6E63B
Copy OK

No errors occurred


AccurateRip summary

Track 1 not present in database
Track 2 not present in database
Track 3 not present in database
Track 4 not present in database
Track 5 not present in database
Track 6 not present in database
Track 7 not present in database
Track 8 not present in database
Track 9 not present in database
Track 10 not present in database
Track 11 not present in database

None of the tracks are present in the AccurateRip database

End of status report

[CUETools log; Date: 29.03.2020 14:05:53; Version: 2.1.4]
[CTDB TOCID: 2iBnd_h6TxKs02dYVA8vAJE.o3I-] found.
Track | CTDB Status
1 | (6/6) Accurately ripped
2 | (6/6) Accurately ripped
3 | (6/6) Accurately ripped
4 | (6/6) Accurately ripped
5 | (6/6) Accurately ripped
6 | (6/6) Accurately ripped
7 | (6/6) Accurately ripped
8 | (6/6) Accurately ripped
9 | (6/6) Accurately ripped
10 | (6/6) Accurately ripped
11 | (6/6) Accurately ripped
[AccurateRip ID: 00109b49-00914d73-9709930b] found.
Track [ CRC | V2 ] Status
01 [4c06d479|ee1edcf5] (0+3/3) Accurately ripped
02 [e7c00015|693172d4] (0+3/3) Accurately ripped
03 [4966ab3e|d147b0b9] (0+3/3) Accurately ripped
04 [4a8cfc22|e1e4dd88] (0+3/3) Accurately ripped
05 [41125c66|a002948c] (0+3/3) Accurately ripped
06 [2cfbfc3a|10a3df21] (0+3/3) Accurately ripped
07 [3719379c|6d35fd6e] (0+3/3) Accurately ripped
08 [3312f93c|8da5a44f] (0+3/3) Accurately ripped
09 [e6849dd8|0584def2] (0+3/3) Accurately ripped
10 [14061c25|92d78413] (0+3/3) Accurately ripped
11 [ffcbeda2|376b70d5] (0+3/3) Accurately ripped

Track Peak [ CRC32 ] [W/O NULL] [ LOG ]
– 100,0 [2DB6E63B] [8A3717A3] CRC32
01 100,0 [1B303A29] [4140A589]
02 99,9 [2208279D] [A31AAC6E]
03 100,0 [9CF61A4F] [C8C133FA]
04 100,0 [851CAA6A] [FD88D9D4]
05 100,0 [5111BCD6] [17FB374C]
06 100,0 [D174361E] [ADFEEEFB]
07 100,0 [87494C8C] [ED67A19E]
08 100,0 [28640014] [BA1F4228]
09 100,0 [30EECF0A] [936E1692]
10 100,0 [80F8CBE6] [2C803AD0]
11 100,0 [1F93279C] [1A6E00DB]

Thanks to 3322

See also: