Tags
Language
Tags

Santana - Santana IV (2016) (Repost)

Posted By: gribovar
Santana - Santana IV (2016) (Repost)

Santana - Santana IV (2016)
EAC Rip | FLAC (image+.cue+log) - 492 MB | MP3 CBR 320 kbps (LAME 3.93) - 178 MB | Covers - 119 MB
Genre: Classic Rock, Latin Rock, Blues Rock, Psychedelic Rock | RAR 3% Rec. | Label: Santana IV Records (S4007)

Two years in the making, Santana IV marks the reunion of nearly all members of the 1971-1972 band, arguably its greatest lineup. Carlos Santana, conguero Michael Carabello, organist/lead vocalist Gregg Rolie, drummer Michael Shrieve, and guitarist Neal Schon cut the landmark Santana III in 1971. It was a short-lived group as Schon and Rolie would depart in early 1973 to form Journey. Filling out the lineup are Carlos' longtime bassist Benny Rietveld and second percussionist Karl Perazza. Unlike the reunions of most classic rockers, this one proves its musical mettle, even when the album gives in to excess. The interplay between the guitarists is fiery, while Rolie and Shrieve have never been less than inspiring. The former is a far better (more expressive) vocalist than he was in his youth.
This output runs the stylistic gamut without compromising Santana's core sound. Opener "Yambu" is a cooking meld of cumbia, funk, and hard rock. The screaming blues-rock of "Shake It" is the first - but not only - place where Peter Green's Fleetwood Mac is referenced, albeit with percolating Afro-Cuban grooves and salsa chants. In "Blues Magic," they reference Mac again in a slow, brooding two-chord blues vamp. It would have made a perfect B-side for "Black Magic Woman." First single "Anywhere You Want to Go" recalls the strutting, swelling toughness of III and Abraxas. "Fillmore East" commences with a silvery nocturnal feel, then evolves into a seven-minute instrumental jam that lets the front line players stretch out. Schon, always a rock technician, makes Carlos work harder than he has in years. "Love Makes the World Go Round" and "Freedom Is in Your Mind" are changes of pace with Ronald Isley on vocals. The former is an R&B-inspired rock jam with cooking percussive layers; the latter a scorching meld of raucous funk and jazz-rock with Yoruban polyrhythms. The instrumental ballad "Sueños" revisits the feel of "Samba Pa Ti," while "Echizo" touches on the transcendent tropical, melodic jazz fusion of "Song of the Wind" as both guitarists soar. The album should have ended with "Come as You Are," a celebratory, tropically inspired rocker, but closes instead with "Forgiveness," a beautiful but long, slow blues that should have been sequenced earlier in the mix.
At over 75 minutes, Santana IV would have benefitted greatly from judicious editing. There is filler here: the classic rock-styled blues raveup in "Choo Choo," the horn-drenched boogie of "Caiminando," the tired, Shaman-esque "Leave Me Alone," all feel like they are ideas rather than finished songs. Flaws aside, IV is quite enjoyable - especially split over a couple of listens. There remains a real musical connection and shared joy between these players. They may not sound young, radical, or reckless, but they do come off as if they never stopped playing and discovering together.

Tracklist:
01. Yambu
02. Shake It
03. Anywhere You Want To Go
04. Fillmore East
05. Love Makes The World Go Round
06. Freedom In Your Mind
07. Choo Choo
08. All Aboard
09. Sueсos
10. Caminando
11. Blues Magic
12. Echizo
13. Leave Me Alone
14. You And I
15. Come As You Are
16. Forgiveness

Total time: 01:15:34

Exact Audio Copy V1.0 beta 3 from 29. August 2011

Отчёт EAC об извлечении, выполненном 15. апреля 2016, 21:00

Santana / Santana IV

Дисковод: ATAPI iHAS424 A Adapter: 0 ID: 0

Режим чтения : Достоверность
Использование точного потока : Да
Отключение кэша аудио : Да
Использование указателей C2 : Нет

Коррекция смещения при чтении : 6
Способность читать области Lead-in и Lead-out : Нет
Заполнение пропущенных сэмплов тишиной : Да
Удаление блоков с тишиной в начале и конце : Нет
При вычислениях CRC использовались нулевые сэмплы : Да
Интерфейс : Установленный внешний ASPI-интерфейс

Выходной формат : Пользовательский кодировщик
Выбранный битрейт : 1024 kBit/s
Качество : Высокий
Добавление ID3-тега : Нет
Утилита сжатия : C:\Program Files\Exact Audio Copy\FLAC\FLAC.EXE
Дополнительные параметры : -8 -V -T "ARTIST=%artist%" -T "ALBUM=%albumtitle%" -T "DATE=%year%" -T "GENRE=%genre%" -T "COMMENT=ripped by izia1956" %source%


TOC извлечённого CD

Трек | Старт | Длительность | Начальный сектор | Конечный сектор
––––––––––––––––––––––––––––––––––-
1 | 0:00.00 | 3:26.57 | 0 | 15506
2 | 3:26.57 | 4:44.60 | 15507 | 36866
3 | 8:11.42 | 5:04.63 | 36867 | 59729
4 | 13:16.30 | 7:44.21 | 59730 | 94550
5 | 21:00.51 | 4:20.28 | 94551 | 114078
6 | 25:21.04 | 5:29.72 | 114079 | 138825
7 | 30:51.01 | 4:09.58 | 138826 | 157558
8 | 35:00.59 | 2:03.21 | 157559 | 166804
9 | 37:04.05 | 5:15.07 | 166805 | 190436
10 | 42:19.12 | 4:20.53 | 190437 | 209989
11 | 46:39.65 | 4:25.42 | 209990 | 229906
12 | 51:05.32 | 3:53.56 | 229907 | 247437
13 | 54:59.13 | 4:01.20 | 247438 | 265532
14 | 59:00.33 | 4:19.56 | 265533 | 285013
15 | 63:20.14 | 4:51.38 | 285014 | 306876
16 | 68:11.52 | 7:22.01 | 306877 | 340027


Характеристики диапазона извлечения и сообщения об ошибках

Выбранный диапазон

Имя файла D:\BitComet\Santana - Santana IV (2016)\Santana - Santana IV.wav

Пиковый уровень 100.0 %
Скорость извлечения 6.8 X
Качество диапазона 100.0 %
CRC теста 4D762EBA
CRC копии 4D762EBA
Копирование… OK

Ошибок не произошло


AccurateRip: сводка

Трек 1 отсутствует в базе данных
Трек 2 отсутствует в базе данных
Трек 3 отсутствует в базе данных
Трек 4 отсутствует в базе данных
Трек 5 отсутствует в базе данных
Трек 6 отсутствует в базе данных
Трек 7 отсутствует в базе данных
Трек 8 отсутствует в базе данных
Трек 9 отсутствует в базе данных
Трек 10 отсутствует в базе данных
Трек 11 отсутствует в базе данных
Трек 12 отсутствует в базе данных
Трек 13 отсутствует в базе данных
Трек 14 отсутствует в базе данных
Трек 15 отсутствует в базе данных
Трек 16 отсутствует в базе данных

Ни одного трека нет в базе AccurateRip

Конец отчёта

==== Контрольная сумма отчёта BDA47D3D9E9AC16D4529471EAD3C8DABC4B5457397B0665CB8501725C6720703 ====

[CUETools log; Date: 24.03.2020 21:32:08; Version: 2.1.4]
[CTDB TOCID: 9rtZqdqImOl9O0vm7s.xhwfj3T4-] found.
Track | CTDB Status
1 | (6/6) Accurately ripped
2 | (6/6) Accurately ripped
3 | (6/6) Accurately ripped
4 | (6/6) Accurately ripped
5 | (6/6) Accurately ripped
6 | (6/6) Accurately ripped
7 | (6/6) Accurately ripped
8 | (6/6) Accurately ripped
9 | (6/6) Accurately ripped
10 | (6/6) Accurately ripped
11 | (6/6) Accurately ripped
12 | (6/6) Accurately ripped
13 | (6/6) Accurately ripped
14 | (6/6) Accurately ripped
15 | (6/6) Accurately ripped
16 | (6/6) Accurately ripped
[AccurateRip ID: 002ba08c-0209001a-c511b510] found.
Track [ CRC | V2 ] Status
01 [8077334c|b58fe727] (0+2/2) Accurately ripped
02 [44c6f735|c6dcba68] (0+2/2) Accurately ripped
03 [87f70340|177ca3be] (0+2/2) Accurately ripped
04 [128c599a|28dcccd8] (0+2/2) Accurately ripped
05 [fca82d1a|2bbbf650] (0+2/2) Accurately ripped
06 [bcf6f10d|32bfc8ab] (0+2/2) Accurately ripped
07 [55e35f84|56037a3d] (0+2/2) Accurately ripped
08 [ff95455e|b678280a] (0+2/2) Accurately ripped
09 [5785ec45|252eecf5] (0+2/2) Accurately ripped
10 [6741fe9d|e0c7f007] (0+2/2) Accurately ripped
11 [cd9c5121|c417927f] (0+2/2) Accurately ripped
12 [1da8ea42|80c9d493] (0+2/2) Accurately ripped
13 [8f45e835|dbc9413a] (0+2/2) Accurately ripped
14 [4f48a54b|3da12b9f] (0+2/2) Accurately ripped
15 [fbb4019b|50488e98] (0+2/2) Accurately ripped
16 [a3686736|e281f302] (0+2/2) Accurately ripped

Track Peak [ CRC32 ] [W/O NULL] [ LOG ]
– 100,0 [4D762EBA] [17BEBE2B] CRC32
01 100,0 [73E30FA1] [C808C2C9]
02 100,0 [075B7980] [FC51F14B]
03 100,0 [E190EC1E] [F95B126B]
04 98,3 [7D11458C] [4BF43253]
05 100,0 [8292A431] [42DB0945]
06 100,0 [3470F807] [C62CE67F]
07 100,0 [7AEF7853] [CF56082A]
08 100,0 [D4EF0B55] [40F21902]
09 99,2 [4FB11E3F] [20D089E3]
10 100,0 [779EE0D7] [E30B95E9]
11 100,0 [E50EE370] [88B86A39]
12 100,0 [F00746E9] [480956E6]
13 100,0 [B9DAD4FB] [FA8B3701]
14 100,0 [CD919746] [8FA7BE1A]
15 100,0 [D82D09D0] [B4A0CFED]
16 100,0 [5893BAE0] [873452D1]

Thanks to izia1956

See also:
Santana - 2 Studio Almums (1969-1972) [MFSL, 2007-2011]
Carlos Santana & Mahavishn... Surrender (1973) [MFSL, 2011]
Santana - Black Magic Woman: The Best Of Santana (1999)