Tags
Language
Tags

Santana - Santana (1969) [MFSL, 2015]

Posted By: gribovar
Santana - Santana (1969) [MFSL, 2015]

Santana - Santana (1969) [MFSL, 2015]
EAC Rip | FLAC (tracks+.cue+log) - 245 MB | MP3 CBR 320 kbps (LAME 3.93) - 101 MB | Covers (13 MB) included
Genre: Jazz Rock, Latin Rock, Blues Rock | RAR 3% Rec. | Label: Mobile Fidelity Sound Lab (UDSACD 2151)

Before the arrival of Carlos Santana's eponymous band, the San Francisco rock scene drew the inspiration for its jam-oriented music mainly from blues, rock, and Eastern modalities. Santana added Latin music to the mix, forever changing the course of rock & roll history. On their groundbreaking debut album, the group mix Latin percussion with driving rock grooves. Santana's unique guitar style, alternately biting and liquid, vies with the multiple percussionists for the sonic focus. Unlike later efforts, Santana's first album features an abundance of loose, collective compositions based on a couple of simple riffs ("Jingo," "Soul Sacrifice"). This approach allows for Santana and his bandmates to flex their improvisational muscles to fine effect. The high-energy level on Santana is infectious - the laid-back feel of other '60s San Francisco groups was clearly not for Carlos and co.

Tracklist:
01. Waiting
02. Evil Ways
03. Shades of Time
04. Savor
05. Jingo
06. Persuasion
07. Treat
08. You Just Don't Care
09. Soul Sacrifice

Total time: 37:17

Exact Audio Copy V1.3 from 2. September 2016

EAC extraction logfile from 12. July 2017, 23:49

Santana / Santana (2016 MFSL)

Used drive : PLEXTOR CD-R PREMIUM Adapter: 1 ID: 1

Read mode : Secure
Utilize accurate stream : Yes
Defeat audio cache : Yes
Make use of C2 pointers : No

Read offset correction : 30
Overread into Lead-In and Lead-Out : No
Fill up missing offset samples with silence : Yes
Delete leading and trailing silent blocks : No
Null samples used in CRC calculations : Yes
Used interface : Native Win32 interface for Win NT & 2000
Gap handling : Appended to previous track

Used output format : User Defined Encoder
Selected bitrate : 768 kBit/s
Quality : High
Add ID3 tag : No
Command line compressor : C:\Program Files (x86)\Exact Audio Copy\FLAC\FLAC.EXE
Additional command line options : -6 -e -p -V -T "ARTIST=%artist%" -T "TITLE=%title%" -T "ALBUM=%albumtitle%" -T "DATE=%year%" -T "TRACKNUMBER=%tracknr%" -T "GENRE=%genre%" -T "PERFORMER=%albuminterpret%" -T "COMPOSER=%composer%" %haslyrics%–tag-from-file=LYRICS="%lyricsfile%"%haslyrics% -T "ALBUMARTIST=%albumartist%" -T "DISCNUMBER=%cdnumber%" -T "TOTALDISCS=%totalcds%" -T "TOTALTRACKS=%numtracks%" -T "COMMENT=%comment%" %source% -o %dest%


TOC of the extracted CD

Track | Start | Length | Start sector | End sector
––––––––––––––––––––––––––––-
1 | 0:00.00 | 4:07.19 | 0 | 18543
2 | 4:07.19 | 4:00.35 | 18544 | 36578
3 | 8:07.54 | 3:14.17 | 36579 | 51145
4 | 11:21.71 | 2:45.70 | 51146 | 63590
5 | 14:07.66 | 4:24.49 | 63591 | 83439
6 | 18:32.40 | 2:36.64 | 83440 | 95203
7 | 21:09.29 | 4:47.14 | 95204 | 116742
8 | 25:56.43 | 4:38.19 | 116743 | 137611
9 | 30:34.62 | 6:41.66 | 137612 | 167752


Track 1

Filename C:\tmp\00_RIPS\01 - Waiting.wav

Pre-gap length 0:00:02.00

Peak level 94.6 %
Extraction speed 8.8 X
Track quality 100.0 %
Test CRC 76A4239D
Copy CRC 76A4239D
Accurately ripped (confidence 12) [DFE0A293] (AR v2)
Copy OK

Track 2

Filename C:\tmp\00_RIPS\02 - Evil Ways.wav

Pre-gap length 0:00:04.46

Peak level 93.9 %
Extraction speed 9.6 X
Track quality 100.0 %
Test CRC 1E71CD93
Copy CRC 1E71CD93
Accurately ripped (confidence 12) [30B477F4] (AR v2)
Copy OK

Track 3

Filename C:\tmp\00_RIPS\03 - Shades Of Time.wav

Pre-gap length 0:00:03.80

Peak level 96.8 %
Extraction speed 8.5 X
Track quality 99.9 %
Test CRC 06EAA82C
Copy CRC 06EAA82C
Accurately ripped (confidence 12) [5D3A3AB7] (AR v2)
Copy OK

Track 4

Filename C:\tmp\00_RIPS\04 - Savor.wav

Peak level 97.3 %
Extraction speed 10.5 X
Track quality 100.0 %
Test CRC 9D76B269
Copy CRC 9D76B269
Accurately ripped (confidence 12) [B075ECC8] (AR v2)
Copy OK

Track 5

Filename C:\tmp\00_RIPS\05 - Jingo.wav

Peak level 94.4 %
Extraction speed 11.4 X
Track quality 100.0 %
Test CRC 1AD545D1
Copy CRC 1AD545D1
Accurately ripped (confidence 12) [094225C9] (AR v2)
Copy OK

Track 6

Filename C:\tmp\00_RIPS\06 - Persuasion.wav

Pre-gap length 0:00:02.90

Peak level 94.8 %
Extraction speed 11.5 X
Track quality 100.0 %
Test CRC BDDDF592
Copy CRC BDDDF592
Accurately ripped (confidence 12) [236D2233] (AR v2)
Copy OK

Track 7

Filename C:\tmp\00_RIPS\07 - Treat.wav

Pre-gap length 0:00:03.73

Peak level 95.5 %
Extraction speed 11.0 X
Track quality 99.9 %
Test CRC 0FFB0246
Copy CRC 0FFB0246
Accurately ripped (confidence 12) [1C2951E8] (AR v2)
Copy OK

Track 8

Filename C:\tmp\00_RIPS\08 - You Just Don't Care.wav

Pre-gap length 0:00:04.13

Peak level 96.1 %
Extraction speed 13.0 X
Track quality 100.0 %
Test CRC C845E18E
Copy CRC C845E18E
Accurately ripped (confidence 12) [F53B6AEA] (AR v2)
Copy OK

Track 9

Filename C:\tmp\00_RIPS\09 - Soul Sacrifice.wav

Pre-gap length 0:00:03.56

Peak level 94.5 %
Extraction speed 12.9 X
Track quality 100.0 %
Test CRC 32E0F61E
Copy CRC 32E0F61E
Accurately ripped (confidence 12) [292D9034] (AR v2)
Copy OK


All tracks accurately ripped

No errors occurred

End of status report

–– CUETools DB Plugin V2.1.6

[CTDB TOCID: 67yF3j2VHVbXHxkPdFRAqMFvcbI-] found
Submit result: 67yF3j2VHVbXHxkPdFRAqMFvcbI- has been confirmed
Track | CTDB Status
1 | (22/22) Accurately ripped
2 | (22/22) Accurately ripped
3 | (22/22) Accurately ripped
4 | (22/22) Accurately ripped
5 | (22/22) Accurately ripped
6 | (22/22) Accurately ripped
7 | (22/22) Accurately ripped
8 | (22/22) Accurately ripped
9 | (22/22) Accurately ripped


==== Log checksum 9C667BE056E2DFBA39E8686A581D1A4F4B98CD6742F159E61FFD93A58991A461 ====

[CUETools log; Date: 27.03.2020 23:39:29; Version: 2.1.4]
[CTDB TOCID: 67yF3j2VHVbXHxkPdFRAqMFvcbI-] found.
Track | CTDB Status
1 | (47/47) Accurately ripped
2 | (47/47) Accurately ripped
3 | (47/47) Accurately ripped
4 | (47/47) Accurately ripped
5 | (47/47) Accurately ripped
6 | (47/47) Accurately ripped
7 | (47/47) Accurately ripped
8 | (47/47) Accurately ripped
9 | (47/47) Accurately ripped
[AccurateRip ID: 000bc234-0056c48f-8308bc09] found.
Track [ CRC | V2 ] Status
01 [b4b3a2bd|dfe0a293] (00+27/31) Accurately ripped
02 [810f6e29|30b477f4] (00+28/32) Accurately ripped
03 [3cf9a7fa|5d3a3ab7] (00+27/31) Accurately ripped
04 [f375207b|b075ecc8] (00+27/31) Accurately ripped
05 [02744759|094225c9] (00+28/32) Accurately ripped
06 [d39d260d|236d2233] (00+27/31) Accurately ripped
07 [4560296a|1c2951e8] (00+27/31) Accurately ripped
08 [5f3662a1|f53b6aea] (00+27/31) Accurately ripped
09 [b06899f6|292d9034] (00+27/31) Accurately ripped
Offsetted by -12:
01 [92e9d1c4] (00/31) No match (V2 was not tested)
02 [1b28d1c8] (00/32) No match (V2 was not tested)
03 [bd30dc28] (00/31) No match (V2 was not tested)
04 [96fbfd6a] (00/31) No match (V2 was not tested)
05 [e7b3ad0d] (00/32) No match (V2 was not tested)
06 [0691ac51] (00/31) No match (V2 was not tested)
07 [6b35a6a8] (00/31) No match (V2 was not tested)
08 [7d00b0a9] (00/31) No match (V2 was not tested)
09 [4425e78e] (00/31) No match (V2 was not tested)

Track Peak [ CRC32 ] [W/O NULL] [ LOG ]
– 97,3 [67749AD3] [4951A8E0]
01 94,6 [76A4239D] [765B0C6E] CRC32
02 93,9 [1E71CD93] [8C3CDFB3] CRC32
03 96,8 [06EAA82C] [1CE9BB78] CRC32
04 97,3 [9D76B269] [1BB7DF18] CRC32
05 94,4 [1AD545D1] [E62509CD] CRC32
06 94,8 [BDDDF592] [1F050D5C] CRC32
07 95,5 [0FFB0246] [7DCC52A8] CRC32
08 96,1 [C845E18E] [3113765D] CRC32
09 94,5 [32E0F61E] [EA7E6885] CRC32

Thanks to mclarenspy

See also: