Subcategories

São Paulo Symphony Orchestra, John Neschling - Hindemith: Nobilissima Visione, Mathis der Maler, Metamorphosen (2011) (Repost)

Posted By: tirexiss
São Paulo Symphony Orchestra, John Neschling - Hindemith: Nobilissima Visione, Mathis der Maler, Metamorphosen (2011) (Repost)

São Paulo Symphony Orchestra, John Neschling - Hindemith: Nobilissima Visione, Mathis der Maler, Metamorphosen (2011)
EAC | FLAC (image+.cue, log) | Covers Included | 72:41 | 300 MB
Genre: Classical | Label: BIS | Catalog: BIS-SACD-1730

This attractive album featuring the São Paolo Symphony Orchestra led by John Neschling includes three of Hindemith's most popular and appealing orchestral scores, all dating from the mid-'30s. Mathis der Maler, a 1934 symphony made up of three movements the composer incorporated into his opera of the same name, is a work with a mysteriously effective consolidation of seemingly disparate elements; it comes across as austere yet deeply intimate, and radiantly pure yet full of passion and ardor. Nobility is difficult to define in musical terms, but it's a quality that can be applied without reservation to Hindemith's majestic, warmly humane symphony. Nobilissima visione (1938), a suite based on a ballet about St. Francis, inhabits a similar emotional and musical world. It's a lovely, often serene piece, but it doesn't rise to the same transcendent level of inspiration as the earlier work. Symphonic Metamorphosis uses essentially the same harmonic language as the other pieces, but to an entirely different effect. Early in his career the composer was a brash, irreverent iconoclast and he wrote plenty of surreally humorous music, but by this mature phase in his career he was known for his sober rationality rather than for wit. Three of the four movements of Symphonic Metamorphosis, though, burble and erupt with a sense of extravagant whimsy that seems more characteristic of Prokofiev at his goofiest than of Hindemith. It's a wild ride, and terrifically fun. Neschling leads performances of exceptional insight, subtlety, and attention to detail. He makes the Mathis symphony really glow, and he revels in the absurdities of Symphonic Metamorphosis. The playing of the São Paolo Symphony Orchestra is world-class, and its sound is full and polished. The most notable aspects of the performances are the superb balance and the nuanced attention to the shadings of dynamics, which allow orchestral details to shine. Part of the credit for the clarity and lively sound certainly also goes to the excellent work of the engineers of BIS' SACD.

São Paulo Symphony Orchestra, John Neschling - Hindemith: Nobilissima Visione, Mathis der Maler, Metamorphosen (2011) (Repost)

Track List:

Paul Hindemith (1895-1963)

[1]-[3] Mathis der Maler, symphony (1934)
[4]-[6] Nobilissima Visione, ballet suite (1938)
[7]-[10] Symphonic Metamorphosis (1938)
on Themes of Carl Maria von Weber

Performers:
São Paulo Symphony Orchestra
John Neschling, conductor

Exact Audio Copy V1.0 beta 3 from 29. August 2011

EAC extraction logfile from 25. August 2012, 21:54

Sao Paulo Symphony Orchestra, John Neschling / Hindemith - Orchestral Works

Used drive : HL-DT-STDVDRAM GSA-4083N Adapter: 1 ID: 0

Read mode : Secure
Utilize accurate stream : Yes
Defeat audio cache : Yes
Make use of C2 pointers : No

Read offset correction : 667
Overread into Lead-In and Lead-Out : No
Fill up missing offset samples with silence : Yes
Delete leading and trailing silent blocks : No
Null samples used in CRC calculations : Yes
Used interface : Native Win32 interface for Win NT & 2000

Used output format : User Defined Encoder
Selected bitrate : 896 kBit/s
Quality : High
Add ID3 tag : No
Command line compressor : C:\Program Files\Exact Audio Copy\Flac\flac.exe
Additional command line options : -V -8 %source%


TOC of the extracted CD

Track | Start | Length | Start sector | End sector
––––––––––––––––––––––––––––-
1 | 0:00.00 | 9:04.51 | 0 | 40850
2 | 9:04.51 | 4:20.44 | 40851 | 60394
3 | 13:25.20 | 14:11.10 | 60395 | 124229
4 | 27:36.30 | 8:44.40 | 124230 | 163569
5 | 36:20.70 | 8:47.47 | 163570 | 203141
6 | 45:08.42 | 5:31.68 | 203142 | 228034
7 | 50:40.35 | 4:12.71 | 228035 | 247005
8 | 54:53.31 | 8:00.16 | 247006 | 283021
9 | 62:53.47 | 4:26.71 | 283022 | 303042
10 | 67:20.43 | 5:20.73 | 303043 | 327115


Range status and errors

Selected range

Filename J:\Music\Hindemith - Orchestral Works - Neschling\Hindemith - Orchestral Works.wav

Peak level 96.0 %
Extraction speed 4.3 X
Range quality 100.0 %
Test CRC 32AF8A3F
Copy CRC 32AF8A3F
Copy OK

No errors occurred

End of status report

==== Log checksum EDBA091FA21E1E461853AD5A3E039C4C963BCCCBEA854B8D15FA7E3FDB297319 ====

[CUETools log; Date: 11.02.2018 21:36:59; Version: 2.1.5]
[CTDB TOCID: ZTPKXhpUf..8DSZWHOPVWL9nLPE-] found.
Track | CTDB Status
1 | (7/7) Accurately ripped
2 | (7/7) Accurately ripped
3 | (7/7) Accurately ripped
4 | (7/7) Accurately ripped
5 | (7/7) Accurately ripped
6 | (7/7) Accurately ripped
7 | (7/7) Accurately ripped
8 | (7/7) Accurately ripped
9 | (7/7) Accurately ripped
10 | (7/7) Accurately ripped
[AccurateRip ID: 001e37fa-00ed3183-8711090a] found.
Track [ CRC | V2 ] Status
01 [53241c3b|6b0264e6] (0+8/8) Accurately ripped
02 [432aaf24|66770396] (0+8/8) Accurately ripped
03 [0ff99ad1|357b2349] (0+8/8) Accurately ripped
04 [312daa1c|c7805502] (0+9/9) Accurately ripped
05 [7eec9baf|8884f787] (0+9/9) Accurately ripped
06 [099f8c97|f6b33097] (0+9/9) Accurately ripped
07 [0554ad73|5fbb2472] (0+9/9) Accurately ripped
08 [12d55df5|6ecf3e1a] (0+9/9) Accurately ripped
09 [cce8b770|a9548cdd] (0+9/9) Accurately ripped
10 [b9aa0b68|0c7ed223] (0+9/9) Accurately ripped

Track Peak [ CRC32 ] [W/O NULL] [ LOG ]
– 96,0 [32AF8A3F] [50D8A2E6] CRC32
01 64,2 [3C6DACBD] [1B1F1B70]
02 50,6 [693D73E0] [8E6F603E]
03 95,3 [5654FA6D] [F68E9698]
04 22,1 [626CDF77] [11D592DC]
05 61,3 [9A5CC282] [9B68BF47]
06 96,0 [6CDC5949] [93DCC274]
07 69,0 [E27ED07D] [70CD272E]
08 70,8 [E6E7552D] [AECB2CCE]
09 25,5 [CA517A5A] [2EA12B3E]
10 94,2 [147DA2F7] [ACC3228A]

Thanks to the Original ripper A-Z!

Download: