Subcategories

Sara Evans - Words (2017)

Posted By: SERTiL
Sara Evans - Words (2017)

Sara Evans - Words
EAC Rip | FLAC (tracks)+cue, log, m3u, front cover | 51:56 min | 325 MB
Label: Born To Fly Records | Tracks: 14 | Rls.date: 2017
Country

Sara Evans' ninth album combines sophisticated storytelling with enthralling instrumentals that draw from the best bits of classic country and contemporary pop music. On opener "Long Way Down," breakneck banjo-picking leads the way for her traditional (but not retro) sound, gaining momentum as a pounding drum beat kicks in. "I Need a River," meanwhile, opens with a rootsy breakdown before Evans launches into a story about escaping the "not-so-merry go-round," singing her woes over a Dixie Chicks-style arrangement of fiddles and acoustic guitars.

TRACKLIST
1. Long Way Down (04:14)
2. Marquee Sign (04:00)
3. Diving in Deep (02:36)
4. All the Love You Left Me (04:17)
5. Like the Way You Love Me (03:04)
6. Rain and Fire (03:38)
7. Night Light (03:38)
8. I Need a River (04:22)
9. I Don't Trust Myself (03:34)
10. Make Room at the Bottom (03:12)
11. Words (02:48)
12. I Want You (03:41)
13. Letting You Go (04:11)
14. A Little Bit Stronger (Acoustic Version) (04:38)

Exact Audio Copy V1.3 from 2. September 2016

EAC extraction logfile from 28. September 2017, 18:09

Sara Evans / Words

Used drive : TSSTcorpDVD+-RW TS-H653B Adapter: 1 ID: 0

Read mode : Secure
Utilize accurate stream : Yes
Defeat audio cache : Yes
Make use of C2 pointers : No

Read offset correction : 6
Overread into Lead-In and Lead-Out : No
Fill up missing offset samples with silence : Yes
Delete leading and trailing silent blocks : No
Null samples used in CRC calculations : Yes
Used interface : Native Win32 interface for Win NT & 2000
Gap handling : Appended to previous track

Used output format : User Defined Encoder
Selected bitrate : 1024 kBit/s
Quality : High
Add ID3 tag : No
Command line compressor : C:\Program Files (x86)\Exact Audio Copy\Flac\flac.exe
Additional command line options : -8 -e -p -V -T "ARTIST=%artist%" -T "TITLE=%title%" -T "ALBUM=%albumtitle%" -T "DATE=%year%" -T "TRACKNUMBER=%tracknr%" -T "GENRE=%genre%" -T "PERFORMER=%albuminterpret%" -T "COMPOSER=%composer%" %haslyrics%–tag-from-file=LYRICS="%lyricsfile%"%haslyrics% -T "ALBUMARTIST=%albumartist%" -T "DISCNUMBER=%cdnumber%" -T "TOTALDISCS=%totalcds%" -T "TOTALTRACKS=%numtracks%" -T "COMMENT=%comment%" %source% -o %dest%


TOC of the extracted CD

Track | Start | Length | Start sector | End sector
––––––––––––––––––––––––––––-
1 | 0:00.00 | 4:14.70 | 0 | 19119
2 | 4:14.70 | 4:00.72 | 19120 | 37191
3 | 8:15.67 | 2:36.37 | 37192 | 48928
4 | 10:52.29 | 4:17.63 | 48929 | 68266
5 | 15:10.17 | 3:05.00 | 68267 | 82141
6 | 18:15.17 | 3:38.15 | 82142 | 98506
7 | 21:53.32 | 3:38.27 | 98507 | 114883
8 | 25:31.59 | 4:22.43 | 114884 | 134576
9 | 29:54.27 | 3:34.23 | 134577 | 150649
10 | 33:28.50 | 3:12.62 | 150650 | 165111
11 | 36:41.37 | 2:48.47 | 165112 | 177758
12 | 39:30.09 | 3:41.43 | 177759 | 194376
13 | 43:11.52 | 4:11.55 | 194377 | 213256
14 | 47:23.32 | 4:40.24 | 213257 | 234280


Track 1

Filename C:\Sara Evans - 2017 - Words\01 - Long Way Down.wav

Pre-gap length 0:00:02.00

Peak level 100.0 %
Extraction speed 3.5 X
Track quality 99.9 %
Test CRC B6D54F71
Copy CRC B6D54F71
Accurately ripped (confidence 3) [29732CCB] (AR v2)
Copy OK

Track 2

Filename C:\Sara Evans - 2017 - Words\02 - Marquee Sign.wav

Peak level 100.0 %
Extraction speed 4.7 X
Track quality 100.0 %
Test CRC 18A761D6
Copy CRC 18A761D6
Accurately ripped (confidence 3) [02778311] (AR v2)
Copy OK

Track 3

Filename C:\Sara Evans - 2017 - Words\03 - Diving in Deep.wav

Peak level 100.0 %
Extraction speed 4.8 X
Track quality 100.0 %
Test CRC 232659F8
Copy CRC 232659F8
Accurately ripped (confidence 3) [86ED0C4F] (AR v2)
Copy OK

Track 4

Filename C:\Sara Evans - 2017 - Words\04 - All the Love You Left Me.wav

Pre-gap length 0:00:01.34

Peak level 99.2 %
Extraction speed 5.5 X
Track quality 100.0 %
Test CRC E261A25E
Copy CRC E261A25E
Accurately ripped (confidence 3) [531298CD] (AR v2)
Copy OK

Track 5

Filename C:\Sara Evans - 2017 - Words\05 - Like the Way You Love Me.wav

Pre-gap length 0:00:00.86

Peak level 100.0 %
Extraction speed 5.6 X
Track quality 100.0 %
Test CRC 2B98765C
Copy CRC 2B98765C
Accurately ripped (confidence 3) [D688A385] (AR v2)
Copy OK

Track 6

Filename C:\Sara Evans - 2017 - Words\06 - Rain and Fire.wav

Peak level 100.0 %
Extraction speed 6.0 X
Track quality 100.0 %
Test CRC 95C12093
Copy CRC 95C12093
Accurately ripped (confidence 3) [B10A187D] (AR v2)
Copy OK

Track 7

Filename C:\Sara Evans - 2017 - Words\07 - Night Light.wav

Pre-gap length 0:00:01.66

Peak level 99.8 %
Extraction speed 6.3 X
Track quality 100.0 %
Test CRC 0820B36E
Copy CRC 0820B36E
Accurately ripped (confidence 3) [2EE733B6] (AR v2)
Copy OK

Track 8

Filename C:\Sara Evans - 2017 - Words\08 - I Need a River.wav

Pre-gap length 0:00:00.65

Peak level 100.0 %
Extraction speed 5.6 X
Track quality 99.9 %
Test CRC 4B0B68C7
Copy CRC 4B0B68C7
Accurately ripped (confidence 3) [38F424F2] (AR v2)
Copy OK

Track 9

Filename C:\Sara Evans - 2017 - Words\09 - I Don't Trust Myself.wav

Pre-gap length 0:00:00.80

Peak level 100.0 %
Extraction speed 6.8 X
Track quality 100.0 %
Test CRC DB97DEF0
Copy CRC DB97DEF0
Accurately ripped (confidence 3) [FD1F75BC] (AR v2)
Copy OK

Track 10

Filename C:\Sara Evans - 2017 - Words\10 - Make Room at the Bottom.wav

Pre-gap length 0:00:01.92

Peak level 99.4 %
Extraction speed 6.9 X
Track quality 100.0 %
Test CRC CE3D8D69
Copy CRC CE3D8D69
Accurately ripped (confidence 3) [7D61E921] (AR v2)
Copy OK

Track 11

Filename C:\Sara Evans - 2017 - Words\11 - Words.wav

Pre-gap length 0:00:00.76

Peak level 98.6 %
Extraction speed 5.2 X
Track quality 99.9 %
Test CRC F8B20832
Copy CRC F8B20832
Accurately ripped (confidence 3) [141D2560] (AR v2)
Copy OK

Track 12

Filename C:\Sara Evans - 2017 - Words\12 - I Want You.wav

Pre-gap length 0:00:01.14

Peak level 99.2 %
Extraction speed 7.5 X
Track quality 100.0 %
Test CRC 0A2FEA58
Copy CRC 0A2FEA58
Accurately ripped (confidence 3) [65DCF026] (AR v2)
Copy OK

Track 13

Filename C:\Sara Evans - 2017 - Words\13 - Letting You Go.wav

Pre-gap length 0:00:00.72

Peak level 99.3 %
Extraction speed 7.9 X
Track quality 100.0 %
Test CRC CD8313C7
Copy CRC CD8313C7
Accurately ripped (confidence 3) [99BFBED1] (AR v2)
Copy OK

Track 14

Filename C:\Sara Evans - 2017 - Words\14 - A Little Bit Stronger (Acoustic Version).wav

Pre-gap length 0:00:01.76

Peak level 98.9 %
Extraction speed 8.2 X
Track quality 100.0 %
Test CRC D6160B74
Copy CRC D6160B74
Accurately ripped (confidence 3) [FC7D3A29] (AR v2)
Copy OK


All tracks accurately ripped

No errors occurred

End of status report

==== Log checksum 8110BDA337D26E66320D482AA8C345675769AC41A2721AE59400AC4DF1EA9A4F ====


Thanks to the Original customer.