Tags
Language
Tags

Sarah Brightman - The Harem World Tour: Live From Las Vegas (2004)

Posted By: popsakov
Sarah Brightman - The Harem World Tour: Live From Las Vegas (2004)

Sarah Brightman - The Harem World Tour: Live From Las Vegas (2004)
EAC Rip | FLAC (Img) + Cue + Log ~ 469 Mb | MP3 CBR320 ~ 162 Mb
Full Scans | 01:05:53 | RAR 5% Recovery
Classical Crossover, Pop, Vocal | EMI / Angel Records #7243 5 57802 25

The one drawback of live albums is that the listener is left on their own to visualize what is happening on the stage. For most pop/rock recordings this is not a serious detriment. But for a highly stylized and theatrical show such as Sarah Brightman's Harem World Tour: Live From Las Vegas, the music and visuals go hand-in-hand and this edited CD version of the program lacks the impact felt by the enthusiastic live audience. With applause heard within instrumental passages, including the elongated opening, it leaves a listener puzzled as to what is happening. Without any visuals all that is left is the music, which is immaculately performed yet devoid of any spontaneity. The music and Brightman's performance are as finely tuned and timed as the many costume and set changes seen in the CD booklet. This does not mean the music is substandard, but when the studio versions are comparable, why should a casual fan bother with this disc? Brightman has never been known as a forceful singer and her thin operatic voice rarely has the power to raise goose bumps, but she has a certain frailty that is alluring and it transfers well to the stage. A good example is her rendition of "Nessun Dorma" in which she quietly garners attention – almost too quietly – leaving one to wonder if she has the stamina to finish. Of course, there is no question she can hit the highs, but by the last note it feels as if she might faint from the sheer effort. She may not be an explosive singer, but her accomplished performance rallies the audience in her favor. There are grand moments like this throughout Live From Las Vegas, however it is her subtle readings of contemporary pop songs that work best. "It's a Beautiful Day" is a new age dance tune custom made for her wide range while the ballads "The War Is Over" and "Free" contain some of her most heartfelt vocals. With the exception of a pedestrian studio remake of Anggun's "Snow on the Sahara," Live From Las Vegas offers nothing new and feels rather empty at times. It's like not having a ticket to the show and being forced to hear it from the theater's lobby. A better option would be to view the full-length DVD version of the show where Sarah Brightman's performance and her Harem vision come to life as originally intended – a feast for the ears and eyes.

~ Aaron Latham, All Music

***************

Sarah Brightman - The Harem World Tour: Live From Las Vegas (2004)

Track List:

01. Kama Sutra [02:01]
02. Harem Overture (Cancao do Mar) [03:11]
03. It's a Beautiful Day [04:27]
04. Dust in the Wind [04:02]
05. Who Wants to Live Forever [04:02]
06. Anytime, Anywhere [03:17]
07. La Luna [05:17]
08. Nessun Dorma [04:12]
09. The War Is Over [05:24]
10. Free [03:50]
11. A Whiter Shade of Pale [03:16]
12. Phantom of the Opera Suite [04:27]
13. Wishing You Were Somehow Here Again [03:52]
14. Time to Say Goodbye [04:14]
15. A Question of Honour [05:43]
16. Snow on the Sahara [04:44]

Exact Audio Copy V1.0 beta 4 from 7. December 2014

Отчёт EAC об извлечении, выполненном 7. августа 2015, 15:33

Sarah Brightman / The Harem World Tour: Live from Las Vegas

Дисковод: ASUS DRW-24F1ST a Adapter: 1 ID: 0

Режим чтения : Достоверность
Использование точного потока : Да
Отключение кэша аудио : Да
Использование указателей C2 : Нет

Коррекция смещения при чтении : 6
Способность читать области Lead-in и Lead-out : Нет
Заполнение пропущенных сэмплов тишиной : Да
Удаление блоков с тишиной в начале и конце : Нет
При вычислениях CRC использовались нулевые сэмплы : Да
Интерфейс : Встроенный Win32-интерфейс для Win NT/2000

Выходной формат : Пользовательский кодировщик
Выбранный битрейт : 128 kBit/s
Качество : Высокий
Добавление ID3-тега : Нет
Утилита сжатия : C:\Program Files\Exact Audio Copy\Flac\flac.exe
Дополнительные параметры : -V -8 -T "Date=%year%" -T "Genre=%genre%" %source%


TOC извлечённого CD

Трек | Старт | Длительность | Начальный сектор | Конечный сектор
––––––––––––––––––––––––––––––––––-
1 | 0:00.00 | 2:00.74 | 0 | 9073
2 | 2:00.74 | 3:10.09 | 9074 | 23332
3 | 5:11.08 | 4:26.64 | 23333 | 43346
4 | 9:37.72 | 4:01.54 | 43347 | 61475
5 | 13:39.51 | 4:01.61 | 61476 | 79611
6 | 17:41.37 | 3:16.42 | 79612 | 94353
7 | 20:58.04 | 5:16.34 | 94354 | 118087
8 | 26:14.38 | 4:11.04 | 118088 | 136916
9 | 30:25.42 | 5:23.41 | 136917 | 161182
10 | 35:49.08 | 3:49.32 | 161183 | 178389
11 | 39:38.40 | 3:15.41 | 178390 | 193055
12 | 42:54.06 | 4:26.52 | 193056 | 213057
13 | 47:20.58 | 3:51.09 | 213058 | 230391
14 | 51:11.67 | 4:13.44 | 230392 | 249410
15 | 55:25.36 | 5:42.69 | 249411 | 275129
16 | 61:08.30 | 4:43.56 | 275130 | 296410


Характеристики диапазона извлечения и сообщения об ошибках

Выбранный диапазон

Имя файла C:\Users\Erik\Desktop\Sarah Brightman - The Harem World Tour- Live from Las Vegas.wav

Пиковый уровень 100.0 %
Скорость извлечения 7.7 X
Качество диапазона 99.9 %
CRC теста 4499D094
CRC копии 4499D094
Копирование… OK

Ошибок не произошло


AccurateRip: сводка

Трек 1 : извлечено точно (доверие 1) [185C3F77] (AR v1)
Трек 2 : извлечено точно (доверие 1) [08E5F7C3] (AR v1)
Трек 3 : извлечено точно (доверие 1) [BC934F18] (AR v1)
Трек 4 : извлечено точно (доверие 1) [AEFF4E67] (AR v1)
Трек 5 : извлечено точно (доверие 1) [C2B1CB9B] (AR v1)
Трек 6 : извлечено точно (доверие 1) [A4B66D86] (AR v1)
Трек 7 : извлечено точно (доверие 1) [5450BD07] (AR v1)
Трек 8 : извлечено точно (доверие 1) [A0DDF2F8] (AR v1)
Трек 9 : извлечено точно (доверие 1) [C1269B6D] (AR v1)
Трек 10 : извлечено точно (доверие 1) [3BA36A20] (AR v1)
Трек 11 : извлечено точно (доверие 1) [4E2B0BC6] (AR v1)
Трек 12 : извлечено точно (доверие 1) [7D42985E] (AR v1)
Трек 13 : извлечено точно (доверие 1) [5F311BA9] (AR v1)
Трек 14 : извлечено точно (доверие 1) [A81C4C1D] (AR v1)
Трек 15 : извлечено точно (доверие 1) [EB37E258] (AR v1)
Трек 16 : извлечено точно (доверие 1) [5420A529] (AR v1)

Все треки извлечены точно

Конец отчёта

–– CUETools DB Plugin V2.1.4

[CTDB TOCID: GoYim2C_HOpVuBdC7j._FTOhrcA-] disk not present in database
Submit result: GoYim2C_HOpVuBdC7j._FTOhrcA- has been uploaded


==== Контрольная сумма отчёта 7D7BC462DFE04DBCE86939DF252DC28F7E533DC9DAE7CD66AD77386F3CB43747 ====

Sarah Brightman - The Harem World Tour: Live From Las Vegas (2004)


All thanks go to Erik

>>> Sarah Brightman in my Blog <<<

DOWNLOAD: