Subcategories

Sarah Vaughan - Brazilian Romance (1987)

Posted By: jclane
Sarah Vaughan - Brazilian Romance (1987)

Sarah Vaughan - Brazilian Romance (1987)
EAC Rip | FLAC Image + Cue + Log | Complete Scans Included | 239.3 MB
MP3 CBR @320 kbps (LAME 3.99) | Joint Stereo | 93.8 MB
Sony Classical / CBS Inc | 2 042519 | Vocal Jazz

Brazilian Romance is a 1987 studio album by Sarah Vaughan. This was Vaughan's last album, though she later contributed to Quincy Jones' 1989 Back on the Block. Brazilian Romance was Vaughan's third album of Brazilian music, following Copacabana (1979) and I Love Brazil! (1977)
Track Listing:

01. Make The City Ours Tonight - 3:00
02. Romance - 3:33
03. Love And Passion - 4:00
04. So Many Stars - 4:11
05. Photograph - 2:33
06. Nothing Will Be As It Was - 4:47
07. It's Simple - 3:02
08. Obsession - 3:11
09. Wanting More - 3:57
10. Your Smile - 3:09


Exact Audio Copy V0.99 prebeta 3 from 28. July 2007

EAC extraction logfile from 24. September 2010, 21:29

Sarah Vaughan / Brazilian Romance

Used drive : PIONEER DVD-RW DVR-118L Adapter: 0 ID: 0

Read mode : Secure
Utilize accurate stream : Yes
Defeat audio cache : Yes
Make use of C2 pointers : No

Read offset correction : 6
Overread into Lead-In and Lead-Out : No
Fill up missing offset samples with silence : Yes
Delete leading and trailing silent blocks : No
Null samples used in CRC calculations : Yes
Used interface : Native Win32 interface for Win NT & 2000

Used output format : User Defined Encoder
Selected bitrate : 1024 kBit/s
Quality : High
Add ID3 tag : No
Command line compressor : C:\Arquivos de programas\Exact Audio Copy\FLAC\FLAC.EXE
Additional command line options : -0 -V -T "ARTIST=%a" -T "TITLE=%t" -T "ALBUM=%g" -T "DATE=%y" -T "TRACKNUMBER=%n" -T "GENRE=%m" -T "COMMENT=%e" %s -o %d


TOC of the extracted CD

Track | Start | Length | Start sector | End sector
––––––––––––––––––––––––––––-
1 | 0:00.00 | 2:59.50 | 0 | 13474
2 | 2:59.50 | 3:33.05 | 13475 | 29454
3 | 6:32.55 | 4:00.25 | 29455 | 47479
4 | 10:33.05 | 4:10.62 | 47480 | 66291
5 | 14:43.67 | 2:33.20 | 66292 | 77786
6 | 17:17.12 | 4:46.53 | 77787 | 99289
7 | 22:03.65 | 3:02.10 | 99290 | 112949
8 | 25:06.00 | 3:10.42 | 112950 | 127241
9 | 28:16.42 | 3:56.58 | 127242 | 144999
10 | 32:13.25 | 3:09.35 | 145000 | 159209


Range status and errors

Selected range

Filename C:\Sarah Vaughan - Brazilian Romance.wav

Peak level 99.9 %
Range quality 100.0 %
Test CRC 5790245F
Copy CRC 5790245F
Copy OK

No errors occurred


AccurateRip summary

Track 1 not present in database
Track 2 not present in database
Track 3 not present in database
Track 4 not present in database
Track 5 not present in database
Track 6 not present in database
Track 7 not present in database
Track 8 not present in database
Track 9 not present in database
Track 10 not present in database

None of the tracks are present in the AccurateRip database

End of status report


[CUETools log; Date: 15/01/2013 20:24:43; Version: 2.1.4]
[AccurateRip ID: 000d6665-006b8d58-8f084a0a] found.
Track [ CRC | V2 ] Status
01 [6dbaf58c|6cad3c28] (1+0/1) Accurately ripped
02 [955fdf80|a3b3095d] (1+0/1) Accurately ripped
03 [a27656e1|b05d80ab] (1+0/1) Accurately ripped
04 [5eb81115|88a31f34] (1+0/1) Accurately ripped
05 [48272d61|89b6084e] (1+0/1) Accurately ripped
06 [b265274c|4dfed100] (1+0/1) Accurately ripped
07 [134dde3f|fbb37eae] (1+0/1) Accurately ripped
08 [eb8dccb4|7570fb9d] (1+0/1) Accurately ripped
09 [25d3e46a|37157a49] (1+0/1) Accurately ripped
10 [ec2e9f19|fb7af464] (1+0/1) Accurately ripped

Track Peak [ CRC32 ] [W/O NULL] [ LOG ]
– 99,9 [5790245F] [CE915D9F] CRC32
01 99,9 [C8E1D139] [B83AF8D6]
02 99,9 [B24F1C33] [B1F4C09B]
03 99,9 [60A5D13B] [075768FA]
04 99,9 [0163A724] [2DE81D72]
05 99,9 [02609E2E] [85420BF1]
06 99,9 [88E077AF] [EC41B3B8]
07 99,9 [76B18D68] [DE228089]
08 99,9 [AB3B4AAE] [029AE707]
09 99,9 [71CB7646] [08DF62FB]
10 99,9 [9B6FDA84] [C21CE970]


Personnel:

* Sarah Vaughan - vocal
* Milton Nascimento - vocals
* George Duke - keyboard
* Alphonso Johnson - bass
* Dan Huff - guitar
* Dori Caymmi - guitar, arranger
* Carlos Vega - drums
* Paulinho da Costa - percussion
* Hubert Laws - flute solo on "Obsession"
* Tom Scott - lyricon solo on "Love and Passion", tenor saxophone solo on "Make This City Ours Tonight"
* Ernie Watts - alto saxophone solo on "Nothing Will Be as It Was"
* Marcio Montarroyos - flugelhorn solo on "Romance", trumpet solo on "Make This City Ours Tonight"
* Chuck Domanico - acoustic bass on "Photograph"
* Siedah Garrett - background vocal on "Your Smile"
* Gracinha Leporace - background vocal on "Your Smile"
* Kate Markowitz - background vocal on "Your Smile"

Released Date: 1987
Recorded Date: January, February, 1987
Format: CD, Album
Length: 35:23
Producer: Sérgio Mendes

Sarah Vaughan - Brazilian Romance (1987)
Sarah Vaughan - Brazilian Romance (1987)

******************************************************

Thanks to sanparr & papa1954

The files are interchangeable!