Subcategories

Satellite - A Street Between Sunrise And Sunset (2003) {Japan 1 st Press}

Posted By: popsakov
Satellite - A Street Between Sunrise And Sunset (2003) {Japan 1 st Press}

Satellite - A Street Between Sunrise And Sunset (2003) {Japan 1 st Press}
EAC Rip | FLAC (Img) + Cue + Log ~ 489 Mb | MP3 CBR320 ~ 179 Mb
Covers Included | RAR 5% Recovery
Progressive Rock | Arcangelo #ARC-1059

It took a few years for the members of Collage, Poland's neo-progressive rock bandwagon, to pick themselves up after the group's breakup in the mid-'90s. A Street Between Sunrise and Sunset can be considered as the group's rightful heir. Written almost completely by drummer Wojtek Szadkowski (who used to be Collage's main songwriter), the album is performed by a cast of ex-Collage musicians (some of them appearing as guests). Lead singer Robert Amirian plays the soft card, aiming for the dreamy seduction of Pendragon instead of the lung-heavy theatrics of Fish. It serves the songs right, as they tend to be on the unassertive side of things. Szadkowski's writing consists mostly of an elegant midtempo propelled by a straightforward rhythm section, topped by simple melodies and featuring interesting instrumental breaks for guitarists Sarhan and Mirek Gil to fill in. The melodies walk a fine line between catchy and trite, and here lies the album's fate, since your appreciation of them will determine your perception of the whole project. The album is at least part conceptual, lyrics dealing with divergences of opinions, a man leaving his loved ones to find himself and come back home. The topic is not new, but it is elegantly phrased in image-filled verses that run into a lot of prog rock clichés – but they are very well-written nonetheless. Highlights include the opening "The Evening Wind" and "Fight," the latter a punchy five-minute song. Fans of vintage Collage, but also Fish, Pendragon, IQ, and Quidam, will most probably be fond of this album. The cover artwork was commissioned from Mark Wilkinson, the man behind many of Marillion and Fish's album jackets.

~ François Couture, All Music

***************

Satellite - A Street Between Sunrise And Sunset (2003) {Japan 1 st Press}

Track List:

01. The Evening Wind [0:12:45.24]
02. On the Run [0:14:51.31]
03. Midnight Snow [0:04:59.09]
04. No Disgrace [0:05:34.34]
05. Not Afraid [0:03:55.59]
06. Now [0:10:13.45]
07. Fight [0:04:29.20]
08. A Street Between Sunrise and Sunset [0:11:18.32]
09. Children [0:03:56.38]

Personnel:
Bass Guitar - Przemek Zawadzki
Drums, Producer - Wojtek Szadkowski
Guest, Backing Vocals - Zbyszek Bieniak
Guest, Bass Guitar - Piotr Żaczek
Guest, Drum Programming - Michał Kirmuć (tracks: 5)
Guest, Guitar - Maciek Meller
Guitar - Mirek Gil, Sarhan
Keyboards, Arranged By [Keyboards] - Darek Lisowski
Keyboards, Producer, Arranged By [Keyboards], Engineer, Mixed By - Krzysiek Palczewski
Vocals - Robert Amirian

Exact Audio Copy V1.3 from 2. September 2016

EAC extraction logfile from 24. July 2019, 18:44

Satellite / A Street Between Sunrise and Sunset [ARC-1059]

Used drive : HL-DT-STBD-RE BH10LS38 Adapter: 1 ID: 0

Read mode : Secure
Utilize accurate stream : Yes
Defeat audio cache : Yes
Make use of C2 pointers : No

Read offset correction : 667
Overread into Lead-In and Lead-Out : No
Fill up missing offset samples with silence : Yes
Delete leading and trailing silent blocks : No
Null samples used in CRC calculations : Yes
Used interface : Native Win32 interface for Win NT & 2000

Used output format : User Defined Encoder
Selected bitrate : 128 kBit/s
Quality : High
Add ID3 tag : No
Command line compressor : C:\Program Files (x86)\Exact Audio Copy\Flac\flac.exe
Additional command line options : -V -8 -T "Date=%year%" -T "Genre=%genre%" %source%


TOC of the extracted CD

Track | Start | Length | Start sector | End sector
––––––––––––––––––––––––––––-
1 | 0:00.00 | 12:45.24 | 0 | 57398
2 | 12:45.24 | 14:51.31 | 57399 | 124254
3 | 27:36.55 | 4:59.09 | 124255 | 146688
4 | 32:35.64 | 5:34.34 | 146689 | 171772
5 | 38:10.23 | 3:55.59 | 171773 | 189456
6 | 42:06.07 | 10:13.45 | 189457 | 235476
7 | 52:19.52 | 4:29.20 | 235477 | 255671
8 | 56:48.72 | 11:18.32 | 255672 | 306553
9 | 68:07.29 | 3:56.38 | 306554 | 324291


Range status and errors

Selected range

Filename D:\Rips by Alder\Satellite - A Street Between Sunrise and Sunset [ARC-1059].wav

Peak level 94.7 %
Extraction speed 8.2 X
Range quality 100.0 %
Test CRC 59EFDAD3
Copy CRC 59EFDAD3
Copy OK

No errors occurred


AccurateRip summary

Track 1 accurately ripped (confidence 2) [D341F4FC] (AR v1)
Track 2 accurately ripped (confidence 2) [AF3CEA12] (AR v1)
Track 3 accurately ripped (confidence 2) [CE53C642] (AR v1)
Track 4 accurately ripped (confidence 2) [58D4BCD2] (AR v1)
Track 5 accurately ripped (confidence 2) [50426EC5] (AR v1)
Track 6 accurately ripped (confidence 2) [61A71B9C] (AR v1)
Track 7 accurately ripped (confidence 2) [C722C0DD] (AR v1)
Track 8 accurately ripped (confidence 2) [782550AA] (AR v1)
Track 9 accurately ripped (confidence 2) [4EF046F6] (AR v1)

All tracks accurately ripped

End of status report

–– CUETools DB Plugin V2.1.6

[CTDB TOCID: c6kSHWn5YGiQm0noM1ITk7WdBK0-] found
Submit result: c6kSHWn5YGiQm0noM1ITk7WdBK0- has been confirmed
Track | CTDB Status
1 | (60/60) Accurately ripped
2 | (59/60) Accurately ripped
3 | (59/60) Accurately ripped
4 | (59/60) Accurately ripped
5 | (58/60) Accurately ripped
6 | (58/60) Accurately ripped
7 | (59/60) Accurately ripped
8 | (58/60) Accurately ripped
9 | (57/60) Accurately ripped


==== Log checksum 45F5A4AC0874BD59CFE4F65131AE1A331A2E72FB9DC541E32B9348A8275AE98B ====

Satellite - A Street Between Sunrise And Sunset (2003) {Japan 1 st Press}

All thanks go to Alder

>>> My Blog <<<

Download from icerbox.com: