Tags
Language
Tags

Satellite - Into The Night (2007) {Japan 1st Press}

Posted By: popsakov
Satellite - Into The Night (2007) {Japan 1st Press}

Satellite - Into The Night (2007) {Japan 1st Press}
EAC Rip | FLAC (Img) + Cue + Log ~ 469 Mb | MP3 CBR320 ~ 162 Mb
Covers Included | 01:03:46 | RAR 5% Recovery
Progressive Rock | Arcangelo #ARC-1124

"Into the night" is the final part of a trilogy by Poland's own Satellite, the previous parts being "A Street Between Sunrise And Sunset" (2003, the band's first album) and "Evening Games" (2005). Originally intended as a solo project by Collage's Wojtek Szadkowski, the band have rapidly evolved into one of the finest protagonists of neo-prog currently recording. Jarek Michalski takes over on bass, but the line up is otherwise unchanged. Jarek's bass playing is notable throughout the album, adding an underlying depth to the sound. The music here will appeal not just to those who enjoy the melodic power of bands such as Arena and Porcupine Tree, but also to those who favour the classic prog bands such as Yes and Pink Floyd.

The Opening title track is a quite delightful piece with symphonic keyboards and some superlative guitar work. It stands proudly alongside the very best in neo-prog songs. "Dreams" is an epic 13½ minute suite in three parts. Here we find the dynamics of modern day Porcupine Tree merging seamlessly with the epic majesty of Arena. The third part of the track features the guitar playing of Sarhan Kubeisi backed by slower symphonic keyboards, the piece building towards a superb crescendo.

"Downtown skyline" has softer and sparser verses counterpointing with loud guitar bursts, Szadkowski adding some interesting percussion effects. I am reticent to mention Porcupine Tree again since this album is very much of its own character, but those who enjoy albums such as "Stupid dream" will find much to admire here. The track segues into the brief spacey instrumental "Lights", which provides a welcome breather from the almost overwhelming power which drives the album. This in turn becomes "Don't walk away in silence". The track is introduced by some fine John Mitchell (Arena) like guitar leading to what is probably the most accessible song on the album. Deceptively, this appears at first to be a melodic power ballad would have sounded superb on Arena's "The visitor" album, such is its beauty. Soon though, the pace is lifted and we find another magnificent guitar solo with symphonic synth strings.

"Heaven can wait" is a nine minute epic which is unrelated to any other songs of the same title. This is a heavier number with screaming guitar and driving bass. Even the quieter sections are menacing, with a haunting undercurrent. Krzysiek Palczewski's keyboard work is dominant here, his wave upon wave of synth creating a great atmosphere.

The closing "Forgiven and forgotten" gently returns us to earth with a fine vocal performance by Robert Amirian. The keyboards on this track have a distinctly mellotron like sound the song building through some symphonic effects to a grand conclusion.

It is difficult to review this album without constantly drifting into fawning praise and endless superlatives. This is through without doubt the album of 2007. I can only hope that "Into the night" receives the recognition it deserves.

~ Bob McBeath, Prog Archives

***************

Satellite - Into The Night (2007) {Japan 1st Press}

Track List:

01. Into The Night [0:06:53.57]
02. Dreams (Part 1 / Part 2 / Part 3) [0:13:30.56]
03. Downtown Skyline [0:06:15.59]
04. Lights [0:02:14.42]
05. Don't Walk Away In Silence [0:07:35.50]
06. Heaven Can Wait [0:09:04.24]
07. Forgiven And Forgotten [0:06:07.11]
Bonus Tracks:
08. Time Stands Still [0:08:23.58]
09. Around The World [0:03:41.00]

Personnel:
Bass Guitar - Jarek Michalski
Drums - Wojtek Szadkowski
Guitar - Sarhan Kubeisi
Keyboards - Krzysiek Palczewski
Vocals - Robert Amirian

Exact Audio Copy V1.3 from 2. September 2016

EAC extraction logfile from 17. August 2019, 13:13

Satellite / Into The Night [ARC-1124]

Used drive : HL-DT-STBD-RE BH10LS38 Adapter: 1 ID: 0

Read mode : Secure
Utilize accurate stream : Yes
Defeat audio cache : Yes
Make use of C2 pointers : No

Read offset correction : 667
Overread into Lead-In and Lead-Out : No
Fill up missing offset samples with silence : Yes
Delete leading and trailing silent blocks : No
Null samples used in CRC calculations : Yes
Used interface : Native Win32 interface for Win NT & 2000

Used output format : User Defined Encoder
Selected bitrate : 128 kBit/s
Quality : High
Add ID3 tag : No
Command line compressor : C:\Program Files (x86)\Exact Audio Copy\Flac\flac.exe
Additional command line options : -V -8 -T "Date=%year%" -T "Genre=%genre%" %source%


TOC of the extracted CD

Track | Start | Length | Start sector | End sector
––––––––––––––––––––––––––––-
1 | 0:00.00 | 6:53.57 | 0 | 31031
2 | 6:53.57 | 13:30.56 | 31032 | 91837
3 | 20:24.38 | 6:15.59 | 91838 | 120021
4 | 26:40.22 | 2:14.42 | 120022 | 130113
5 | 28:54.64 | 7:35.50 | 130114 | 164288
6 | 36:30.39 | 9:04.24 | 164289 | 205112
7 | 45:34.63 | 6:07.11 | 205113 | 232648
8 | 51:41.74 | 8:23.58 | 232649 | 270431
9 | 60:05.57 | 3:41.00 | 270432 | 287006


Range status and errors

Selected range

Filename D:\Rips by Alder\Satellite - Into The Night [ARC-1124].wav

Peak level 99.8 %
Extraction speed 7.1 X
Range quality 100.0 %
Test CRC BE278C7C
Copy CRC BE278C7C
Copy OK

No errors occurred


AccurateRip summary

Track 1 accurately ripped (confidence 16) [D42C6455] (AR v2)
Track 2 accurately ripped (confidence 15) [2B29B0E9] (AR v2)
Track 3 accurately ripped (confidence 16) [71B52143] (AR v2)
Track 4 accurately ripped (confidence 16) [B356DF33] (AR v2)
Track 5 accurately ripped (confidence 15) [8D8B0C5D] (AR v2)
Track 6 accurately ripped (confidence 15) [897C2AA9] (AR v2)
Track 7 accurately ripped (confidence 16) [8A4E359A] (AR v2)
Track 8 accurately ripped (confidence 15) [5B27F596] (AR v2)
Track 9 accurately ripped (confidence 16) [5B43A340] (AR v2)

All tracks accurately ripped

End of status report

–– CUETools DB Plugin V2.1.6

[CTDB TOCID: Rt1CPz8F3PopiM38NeX3ovE2QV4-] found
Submit result: Rt1CPz8F3PopiM38NeX3ovE2QV4- has been confirmed
Track | CTDB Status
1 | (32/32) Accurately ripped
2 | (32/32) Accurately ripped
3 | (32/32) Accurately ripped
4 | (32/32) Accurately ripped
5 | (32/32) Accurately ripped
6 | (32/32) Accurately ripped
7 | (32/32) Accurately ripped
8 | (31/32) Accurately ripped
9 | (31/32) Accurately ripped


==== Log checksum AC4E636657CA77710205937A7C6E092AEF8D447CE38482194F297079B01CDE3F ====

[CUETools log; Date: 25.08.2019 0:28:15; Version: 2.1.6]
[CTDB TOCID: Rt1CPz8F3PopiM38NeX3ovE2QV4-] found.
Track | CTDB Status
1 | (33/33) Accurately ripped
2 | (33/33) Accurately ripped
3 | (33/33) Accurately ripped
4 | (33/33) Accurately ripped
5 | (33/33) Accurately ripped
6 | (33/33) Accurately ripped
7 | (33/33) Accurately ripped
8 | (32/33) Accurately ripped
9 | (32/33) Accurately ripped
[AccurateRip ID: 00176250-00a8af40-680ef209] found.
Track [ CRC | V2 ] Status
01 [3daaf6e9|d42c6455] (24+16/40) Accurately ripped
02 [5f299f25|2b29b0e9] (23+15/38) Accurately ripped
03 [9ef1d913|71b52143] (24+16/40) Accurately ripped
04 [59b30052|b356df33] (23+16/39) Accurately ripped
05 [d9ed4dd9|8d8b0c5d] (23+15/38) Accurately ripped
06 [db2c227c|897c2aa9] (23+15/38) Accurately ripped
07 [6b0296a7|8a4e359a] (23+16/39) Accurately ripped
08 [736d6dd8|5b27f596] (23+15/38) Accurately ripped
09 [0fa56a48|5b43a340] (23+16/39) Accurately ripped

Track Peak [ CRC32 ] [W/O NULL] [ LOG ]
– 99,8 [BE278C7C] [2B671C1A] CRC32
01 97,3 [E48AFDB1] [8A459C13]
02 98,6 [D6B3A727] [D52D8A62]
03 98,5 [71FD2992] [C752E3FE]
04 85,4 [2B0314B6] [6E6001A9]
05 96,6 [5D94904F] [8D81CBFA]
06 99,8 [1B7E6870] [485F6776]
07 97,7 [1F6EAE26] [6B3AF52C]
08 96,6 [AD5630D9] [CF40C371]
09 97,4 [F1672730] [37454D67]

Satellite - Into The Night (2007) {Japan 1st Press}


See also:

Satellite - A Street Betwee... (2003) {Japan 1 st Press}

Satellite - Evening Games (2004) {Japan 1 st Press}

All thanks go to Alder

>>> My Blog <<<

DOWNLOAD: