Tags
Language
Tags

Savage Garden - Savage Garden (1997) {Japan 1st Press}

Posted By: popsakov
Savage Garden - Savage Garden (1997) {Japan 1st Press}

Savage Garden - Savage Garden (1997) {Japan 1st Press}
EAC Rip | FLAC (Img) + Cue + Log ~ 370 Mb | MP3 CBR320 ~ 118 Mb
Full Scans ~ 231 Mb | 00:49:10 | RAR 5% Recovery
Pop, Pop Rock, Soft Rock | Sony Records #SRCS 8281

Savage Garden is the eponymous debut studio album by Australian pop duo Savage Garden. It was released on 4 March 1997 in Australia by Columbia Records and Roadshow Music. The album won the award for Highest Selling Album at the ARIA Music Awards of 1998, selling more than 12 million copies worldwide, according to Billboard magazine. This album fetched the duo a record of 10 awards at the ARIA Awards 1997, grabbing Best Album, Best Single, Best Group, Song of the Year, Best Debut Album, Best Independent Release, Best Pop Release and Highest Selling Single award—the most awards ever won by a single act in one year. The following year at the ARIA Awards 1998, the album won two more awards—Highest Selling Album award and Outstanding Achievement Award. In October 2010, Savage Garden was listed in the top 40 in the book, 100 Best Australian Albums.

***************

Savage Garden - Savage Garden (1997) {Japan 1st Press}

Track List:

01. To The Moon & Back [0:05:41.29]
02. I Want You [0:03:52.04]
03. Truly Madly Deeply [0:04:38.49]
04. Tears Of Pearls [0:03:47.33]
05. Universe [0:04:20.40]
06. Carry On Dancing [0:03:45.73]
07. Violet [0:04:04.17]
08. Break Me Shake Me [0:03:23.82]
09. A Thousand Words [0:04:00.20]
10. Promises [0:03:32.33]
11. Mine (And You Could Be) [0:04:29.70]
12. Santa Monica [0:03:35.09]

Exact Audio Copy V0.99 prebeta 5 from 4. May 2009

EAC extraction logfile from 1. April 2010, 21:47

Savage Garden / Savage Garden

Used drive : PLEXTOR DVDR PX-716A Adapter: 1 ID: 0

Read mode : Secure
Utilize accurate stream : Yes
Defeat audio cache : Yes
Make use of C2 pointers : No

Read offset correction : 30
Overread into Lead-In and Lead-Out : Yes
Fill up missing offset samples with silence : Yes
Delete leading and trailing silent blocks : No
Null samples used in CRC calculations : Yes
Used interface : Native Win32 interface for Win NT & 2000

Used output format : User Defined Encoder
Selected bitrate : 1024 kBit/s
Quality : High
Add ID3 tag : No
Command line compressor : C:\Program Files (x86)\FLAC\flac.exe
Additional command line options : -8 -V -T "ARTIST=%a" -T "TITLE=%t" -T "ALBUM=%g" -T "DATE=%y" -T "TRACKNUMBER=%n" -T "GENRE=%m" -T "COMMENT=EAC FLAC -8" %s


TOC of the extracted CD

Track | Start | Length | Start sector | End sector
––––––––––––––––––––––––––––-
1 | 0:00.00 | 5:41.22 | 0 | 25596
2 | 5:41.22 | 3:52.03 | 25597 | 42999
3 | 9:33.25 | 4:38.37 | 43000 | 63886
4 | 14:11.62 | 3:47.25 | 63887 | 80936
5 | 17:59.12 | 4:20.30 | 80937 | 100466
6 | 22:19.42 | 3:45.55 | 100467 | 117396
7 | 26:05.22 | 4:04.13 | 117397 | 135709
8 | 30:09.35 | 3:23.62 | 135710 | 150996
9 | 33:33.22 | 4:00.15 | 150997 | 169011
10 | 37:33.37 | 3:32.25 | 169012 | 184936
11 | 41:05.62 | 4:29.53 | 184937 | 205164
12 | 45:35.40 | 3:35.07 | 205165 | 221296


Range status and errors

Selected range

Filename E:\mtorrent_flac\Savage Garden [2 Albums] Japan\Savage Garden - Savage Garden (Japan)\Savage Garden - Savage Garden.wav

Peak level 100.0 %
Range quality 100.0 %
Test CRC FB06DEFE
Copy CRC FB06DEFE
Copy OK

No errors occurred


AccurateRip summary

Track 1 accurately ripped (confidence 4) [0E75E490]
Track 2 accurately ripped (confidence 4) [BDC8D6B8]
Track 3 accurately ripped (confidence 4) [B7D3A8F5]
Track 4 accurately ripped (confidence 4) [FB1A6748]
Track 5 accurately ripped (confidence 4) [32EA1056]
Track 6 accurately ripped (confidence 5) [9163B29B]
Track 7 accurately ripped (confidence 5) [4FE4271A]
Track 8 accurately ripped (confidence 5) [A6B5958B]
Track 9 accurately ripped (confidence 5) [CEA8CA61]
Track 10 accurately ripped (confidence 5) [0B70E696]
Track 11 accurately ripped (confidence 5) [2B40B8CF]
Track 12 accurately ripped (confidence 5) [48C03B05]

All tracks accurately ripped

End of status report

[CUETools log; Date: 29.01.2019 23:40:15; Version: 2.1.6]
[CTDB TOCID: RF_RwL.kXPZJylt_reKP7vZClfc-] found.
Track | CTDB Status
1 | (75/75) Accurately ripped
2 | (75/75) Accurately ripped
3 | (75/75) Accurately ripped
4 | (75/75) Accurately ripped
5 | (75/75) Accurately ripped
6 | (74/75) Accurately ripped
7 | (75/75) Accurately ripped
8 | (72/75) Accurately ripped
9 | (75/75) Accurately ripped
10 | (75/75) Accurately ripped
11 | (75/75) Accurately ripped
12 | (75/75) Accurately ripped
[AccurateRip ID: 0016dd23-00d22882-9a0b860c] found.
Track [ CRC | V2 ] Status
01 [0e75e490|b83bb96f] (09+15/24) Accurately ripped
02 [bdc8d6b8|8befb08f] (09+15/24) Accurately ripped
03 [b7d3a8f5|7d73b753] (08+15/23) Accurately ripped
04 [fb1a6748|04211f3a] (09+14/23) Accurately ripped
05 [32ea1056|a81c01e6] (09+15/24) Accurately ripped
06 [9163b29b|74ab9057] (10+14/24) Accurately ripped
07 [4fe4271a|0212e737] (10+15/25) Accurately ripped
08 [a6b5958b|934e4262] (10+14/24) Accurately ripped
09 [cea8ca61|775f82dd] (10+14/24) Accurately ripped
10 [0b70e696|a5aa6a3c] (10+15/25) Accurately ripped
11 [2b40b8cf|fbef6d24] (10+15/25) Accurately ripped
12 [48c03b05|fa0017ba] (10+15/25) Accurately ripped

Track Peak [ CRC32 ] [W/O NULL] [ LOG ]
– 100,0 [FB06DEFE] [5809C03B] CRC32
01 98,8 [606E959C] [D3734FA9]
02 98,8 [9961A04A] [6AB7503E]
03 98,8 [4F961F1C] [6B6015AF]
04 98,8 [95C19CB1] [F99FC1B4]
05 98,8 [AB118007] [E327A9D1]
06 98,8 [35311409] [C7ECB010]
07 91,2 [051D7197] [21FCC29B]
08 98,8 [1649EE9A] [73FBBB2C]
09 98,8 [6B4F2A6F] [75AE384C]
10 98,8 [CCD5652E] [B9E70CAE]
11 100,0 [3A208AD5] [A97495ED]
12 98,8 [70CCF9A8] [57E438A4]

Savage Garden - Savage Garden (1997) {Japan 1st Press}


See also:

Savage Garden - Affirmation (1999) {Japan 1st Press}

All thanks go to Konstantin_slash

>>> My Blog <<<

DOWNLOAD: