Tags
Language
Tags

Savoy Brown - City Night (2019) *PROPER*

Posted By: popsakov
Savoy Brown - City Night (2019) *PROPER*

Savoy Brown - City Night (2019)
EAC Rip | FLAC (Img) + Cue + Log ~ 368 Mb | MP3 CBR320 ~ 137 Mb
Full Scans ~ 55 Mb | 00:56:34 | RAR 5% Recovery
Blues Rock | Quarto Valley Records #QVR 0114

Over 50 years of rocking the blues, Savoy Brown, with leader Kim Simmonds at the helm, return with 'City Night', their 40th album. On the back of a number one Billboard blues hit in 2017, expectations are high for this new band offering. The album features Kim Simmonds on vocals and searing lead guitar and he is complemented with the most consistent lineup in the bands history, going strong for more than 10 years now. 'City Night' is comprised of 12 high energy blues rock songs to surely please the worldwide fan base. "Walking On Hot Stones", Payback Time" and "Don't Hang Me Out To Dry" will catch the attention of radio DJ's looking for the fresh new sound the Savoy Brown brings to roots music.

Part of the late-'60s blues-rock movement, Britain's Savoy Brown never achieved as much success in their homeland as they did in America, where they promoted their albums with nonstop touring. The band was formed and led by guitarist Kim Simmonds, whose dominating personality led to myriad personnel changes; the original lineup included singer Bryce Portius, keyboardist Bob Hall, guitarist Martin Stone, bassist Ray Chappell, and drummer Leo Manning. This lineup appeared on the band's 1967 debut, Shake Down, a collection of blues covers. Seeking a different approach, Simmonds dissolved the group and brought in guitarist Dave Peverett, bassist Rivers Jobe, drummer Roger Earl, and singer Chris Youlden, who gave them a distinctive frontman with his vocal abilities, bowler hat, and monocle.

With perhaps its strongest lineup, Savoy Brown quickly made a name for itself, recording originals like "Train to Nowhere." However, Youlden left the band in 1970 following Raw Sienna, and shortly thereafter, Peverett, Earl, and new bassist Tony Stevens departed to form Foghat, continuing the pattern of consistent membership turnover. Simmonds collected yet another lineup and began a hectic tour of America, showcasing the group's now-refined bluesy boogie rock style, which dominated the rest of their albums. The group briefly broke up in 1973, but re-formed the following year.

Throughout the '80s and '90s Simmonds remained undeterred by a revolving-door membership and continued to tour and record. Their first album for the Blind Pig label, Strange Dreams, was released in 2003, followed by Steel in 2007. Subsequent LPs include the compilation Too Much of a Good Thing, Voodoo Moon, Goin' to the Delta, and 2015's The Devil to Pay. In 2017, the band returned with the full-length Witchy Feelin', which hit number one on the Billboard Blues Albums chart. Buoyed by that success, Simmonds and Savoy Brown returned with the group's 40th career album, City Nights, in 2019.

~ Steve Huey, All Music

***************

Savoy Brown - City Night (2019) *PROPER*

Track List:

01. Walking On Hot Stones [4:32]
02. Don't Hang Me Out To Dry [4:20]
03. Payback Time [4:53]
04. Red Light Mama [4:15]
05. Conjure Rhythm [4:52]
06. Neighborhood Blues [5:11]
07. Selfish World [5:21]
08. Wearing Thin [4:04]
09. City Night [6:13]
10. Hang In Tough [3:38]
11. Superstitious Woman [4:21]
12. Ain't Gonna Worry [4:54]

Exact Audio Copy V1.3 from 2. September 2016

Отчёт EAC об извлечении, выполненном 8. июня 2019, 9:37

Savoy Brown / City Night

Дисковод: HL-DT-STDVD+-RW GH82N Adapter: 1 ID: 0

Режим чтения : Достоверность
Использование точного потока : Да
Отключение кэша аудио : Да
Использование указателей C2 : Нет

Коррекция смещения при чтении : 667
Способность читать области Lead-in и Lead-out : Нет
Заполнение пропущенных сэмплов тишиной : Да
Удаление блоков с тишиной в начале и конце : Нет
При вычислениях CRC использовались нулевые сэмплы : Да
Интерфейс : Встроенный Win32-интерфейс для Win NT/2000

Выходной формат : Пользовательский кодировщик
Выбранный битрейт : 1024 kBit/s
Качество : Высокий
Добавление ID3-тега : Нет
Утилита сжатия : C:\Program Files (x86)\Exact Audio Copy\FLAC\FLAC.EXE
Дополнительные параметры : -8 -V -T "ARTIST=%artist%" -T "ALBUM=%albumtitle%" -T "DATE=%year%" -T "GENRE=%genre%" -T "COMMENT=ripped by izia1956" %source%


TOC извлечённого CD

Трек | Старт | Длительность | Начальный сектор | Конечный сектор
––––––––––––––––––––––––––––––––––-
1 | 0:00.00 | 4:32.19 | 0 | 20418
2 | 4:32.19 | 4:20.11 | 20419 | 39929
3 | 8:52.30 | 4:53.00 | 39930 | 61904
4 | 13:45.30 | 4:15.18 | 61905 | 81047
5 | 18:00.48 | 4:51.69 | 81048 | 102941
6 | 22:52.42 | 5:10.63 | 102942 | 126254
7 | 28:03.30 | 5:20.57 | 126255 | 150311
8 | 33:24.12 | 4:03.67 | 150312 | 168603
9 | 37:28.04 | 6:13.33 | 168604 | 196611
10 | 43:41.37 | 3:37.73 | 196612 | 212959
11 | 47:19.35 | 4:20.74 | 212960 | 232533
12 | 51:40.34 | 4:54.00 | 232534 | 254583


Характеристики диапазона извлечения и сообщения об ошибках

Выбранный диапазон

Имя файла E:\BitComet\Kim Simmonds And Savoy Brown\2019 - City Night\Savoy Brown - City Night.wav

Пиковый уровень 100.0 %
Скорость извлечения 3.1 X
Качество диапазона 100.0 %
CRC теста E16A744A
CRC копии E16A744A
Копирование… OK

Ошибок не произошло


AccurateRip: сводка

Трек 1 отсутствует в базе данных
Трек 2 отсутствует в базе данных
Трек 3 отсутствует в базе данных
Трек 4 отсутствует в базе данных
Трек 5 отсутствует в базе данных
Трек 6 отсутствует в базе данных
Трек 7 отсутствует в базе данных
Трек 8 отсутствует в базе данных
Трек 9 отсутствует в базе данных
Трек 10 отсутствует в базе данных
Трек 11 отсутствует в базе данных
Трек 12 отсутствует в базе данных

Ни одного трека нет в базе AccurateRip

Конец отчёта

==== Контрольная сумма отчёта AC64A895C2B64D9213E6148012023EA7C73ADB3181154E7B6755EC4A1F0579BA ====

Savoy Brown - City Night (2019) *PROPER*


All thanks go to izia1956

>>> Savoy Brown in my Blog <<<

DOWNLOAD: